<?xml version="1.0" standalone="no"?>
<!DOCTYPE svg PUBLIC "-//W3C//DTD SVG 1.1//EN" "http://www.w3.org/Graphics/SVG/1.1/DTD/svg11.dtd" >
<svg xmlns="http://www.w3.org/2000/svg">
<metadata></metadata>
<defs>
<font id="noticia_textregular" horiz-adv-x="1114" >
<font-face units-per-em="2048" ascent="1638" descent="-410" />
<missing-glyph horiz-adv-x="550" />
<glyph horiz-adv-x="0" />
<glyph unicode="&#xd;" horiz-adv-x="0" />
<glyph unicode=" "  horiz-adv-x="550" />
<glyph unicode="&#x09;" horiz-adv-x="550" />
<glyph unicode="&#xa0;" horiz-adv-x="550" />
<glyph unicode="!" horiz-adv-x="592" d="M180 79q0 34 8 65.5t21.5 55t32 37.5t39.5 14q36 0 67 -8t54.5 -22.5t36.5 -33t13 -39.5q0 -34 -8 -64.5t-21.5 -54t-32.5 -37.5t-40 -14q-36 0 -67 8t-54 21.5t-36 32t-13 39.5zM213 1540l197 22l20 -22l-38 -1170h-141z" />
<glyph unicode="&#x22;" horiz-adv-x="604" d="M70 1157v383h186v-42l-63 -341h-123zM328 1157v383h186v-42l-63 -341h-123z" />
<glyph unicode="#" horiz-adv-x="1317" d="M90 306v137h239l66 466h-239v137h258l44 307h155v-20l-41 -287h286l44 307h155v-20l-41 -287h211v-137h-230l-66 -466h230v-137h-250l-43 -306h-155v20l40 286h-286l-43 -306h-155v20l40 286h-219zM487 443h286l66 466h-286z" />
<glyph unicode="$" horiz-adv-x="1100" d="M112 300l117 25l82 -194q37 -11 82 -18q43 -6 95 -6v515q-5 3 -9 6q-254 150 -310.5 232t-56.5 179q0 146 125 241q97 73 251 90v192h125v-187q69 -2 139 -12q85 -12 164 -40l21 -270l-105 -22l-82 193q-41 11 -84 16q-26 4 -53 5v-478q4 -2 9 -5q188 -110 274.5 -201.5 t86.5 -215.5q0 -165 -129 -266q-96 -76 -241 -94v-211h-125v204q-107 2 -197 19q-99 18 -158 44zM302 1074q0 -71 59 -131q37 -36 127 -97v396q-28 -3 -54 -7q-67 -11 -113 -27q-9 -30 -14 -63.5t-5 -70.5zM613 113l24 4q68 10 126 28q10 25 20 66.5t10 98.5q0 63 -59 131 q-36 42 -121 101v-429z" />
<glyph unicode="%" horiz-adv-x="1683" d="M108 1074q0 62 23.5 117t64.5 96t95.5 64.5t117.5 23.5q62 0 117 -23.5t96 -64.5t64.5 -96t23.5 -117q0 -63 -23.5 -117.5t-64.5 -95.5t-96 -64.5t-117 -23.5q-63 0 -117.5 23.5t-95.5 64.5t-64.5 95.5t-23.5 117.5zM254 0v20l966 1333h175v-20l-966 -1333h-175z M259 1074q0 -42 12 -74.5t33 -55t48 -34t57 -11.5t57 11.5t48 34t33 55t12 74.5t-12 74.5t-33 55t-48 34t-57 11.5t-57 -11.5t-48 -34t-33 -55t-12 -74.5zM939 279q0 62 23.5 117t64.5 96t95.5 64.5t117.5 23.5q62 0 117 -23.5t96 -64.5t64.5 -96t23.5 -117 q0 -63 -23.5 -117.5t-64.5 -95.5t-96 -64.5t-117 -23.5q-63 0 -117.5 23.5t-95.5 64.5t-64.5 95.5t-23.5 117.5zM1090 279q0 -42 12 -74.5t33 -55t48 -34t57 -11.5t57 11.5t48 34t33 55t12 74.5t-12 74.5t-33 55t-48 34t-57 11.5t-57 -11.5t-48 -34t-33 -55t-12 -74.5z" />
<glyph unicode="&#x26;" horiz-adv-x="1439" d="M77 274v30q0 66 25 123.5t66 106.5t93 89.5t107 71.5q-68 97 -106.5 172t-38.5 132v30q0 69 28.5 131.5t84 110.5t136.5 76t186 28q81 0 142.5 -19t103.5 -54t63 -85t21 -112v-29q0 -57 -26 -107t-75.5 -97.5t-121.5 -95t-164 -100.5q86 -102 181 -202.5t192 -182.5 q34 48 52.5 107t18.5 128v26l-153 34l20 98l303 22v-187q0 -88 -32 -168t-92 -149q65 -45 125 -70t114 -25q45 0 84.5 5t68.5 12q34 7 63 17v-96q-27 -19 -64 -34q-32 -13 -77.5 -23t-105.5 -10q-81 0 -163 31.5t-167 88.5q-87 -57 -198 -88.5t-245 -31.5 q-104 0 -187.5 17.5t-141.5 53.5t-89 92t-31 133zM267 312q0 -48 22.5 -86t60.5 -64.5t89 -40.5t107 -14q91 0 169 19.5t141 56.5q-102 85 -203 191.5t-202 224.5q-52 -31 -87.5 -61.5t-57 -63.5t-30.5 -69t-9 -77v-16zM413 1047q0 -39 6 -71t19.5 -63t35 -64t51.5 -74 q57 31 107 64.5t86.5 68.5t58 71.5t21.5 73.5v16q0 43 -14.5 76t-40 55.5t-60.5 34t-77 11.5q-31 0 -56.5 -3t-45.5 -7q-23 -4 -41 -10q-14 -21 -25 -47q-10 -22 -17.5 -51.5t-7.5 -63.5v-17z" />
<glyph unicode="'" horiz-adv-x="346" d="M70 1157v383h186v-42l-63 -341h-123z" />
<glyph unicode="(" horiz-adv-x="663" d="M110 543q0 121 17.5 231.5t46.5 207.5t65.5 180.5t75.5 152.5q90 161 205 286l93 -60q-90 -120 -160 -274q-30 -66 -59 -145t-51.5 -170.5t-36 -194t-13.5 -214.5q0 -113 13.5 -215.5t36 -193.5t51.5 -170t59 -145q70 -154 160 -275l-93 -60q-115 124 -205 286 q-39 69 -75.5 152.5t-65.5 181t-46.5 207.5t-17.5 232z" />
<glyph unicode=")" horiz-adv-x="663" d="M50 -456q90 121 160 275q30 66 58.5 145t51 170t36.5 193.5t14 215.5q0 112 -14 214.5t-36.5 194t-51 170.5t-58.5 145q-70 154 -160 274l93 60q114 -125 205 -286q38 -69 75 -152.5t66 -180.5t46.5 -207.5t17.5 -231.5q0 -122 -17.5 -232t-46.5 -207.5t-66 -181 t-75 -152.5q-91 -162 -205 -286z" />
<glyph unicode="*" horiz-adv-x="780" d="M15 1306l76 132l21 -12l225 -165l-31 277v24h153v-24l-31 -277l225 165l21 12l75 -132l-20 -12l-255 -112l256 -112l20 -12l-76 -132l-21 12l-225 165l31 -277v-24h-153v24l31 277l-225 -165l-21 -12l-75 132l20 12l254 112l-255 112z" />
<glyph unicode="+" horiz-adv-x="1063" d="M160 520v147h298v318h147v-318h298v-147h-298v-318h-147v318h-298z" />
<glyph unicode="," horiz-adv-x="550" d="M90 79q0 34 8 65.5t22 55t32 37.5t39 14q39 0 81 -12t69 -41q9 -9 17 -22t14 -32t10 -44.5t4 -60.5q0 -50 -7.5 -97t-30 -95.5t-65 -100.5t-111.5 -112l-68 80q85 71 118 126t33 96q0 20 -16 31t-39 17q-49 13 -79.5 38t-30.5 57z" />
<glyph unicode="-" horiz-adv-x="803" d="M60 520v147h693v-147h-693z" />
<glyph unicode="." horiz-adv-x="550" d="M140 79q0 34 8 65.5t22 55t32 37.5t39 14q36 0 67 -8t54.5 -22t36.5 -33t13 -40q0 -34 -8 -64.5t-22 -54t-32.5 -37.5t-39.5 -14q-36 0 -67 8t-54 22t-36 32t-13 39z" />
<glyph unicode="/" horiz-adv-x="833" d="M60 -275l568 1815h165v-20l-568 -1815h-165v20z" />
<glyph unicode="0" horiz-adv-x="1176" d="M114 517v105q0 371 126.5 562t357.5 191q238 0 351 -131.5t113 -408.5v-104q0 -377 -119.5 -565t-381.5 -188q-227 0 -337 135.5t-110 403.5zM308 572q0 -237 67 -351t211 -114q156 0 219 133t63 402v140q0 238 -63.5 351t-216.5 113q-151 0 -215.5 -126.5t-64.5 -407.5 v-140z" />
<glyph unicode="1" horiz-adv-x="728" d="M53 1269l335 84h111v-1221l182 -34l-20 -98h-515l-20 98l183 34v1034h-246z" />
<glyph unicode="2" horiz-adv-x="982" d="M68 0v145q136 143 252 265t200.5 227t132.5 194t48 167q0 119 -62 183.5t-172 64.5q-56 0 -107.5 -14.5t-89.5 -32.5l-57 -201l-109 11v261q78 43 183 74t204 31q189 0 294.5 -86.5t105.5 -251.5q0 -98 -50.5 -200t-133.5 -209t-190.5 -219t-221.5 -229l4 -10h437l82 193 l104 -23l-23 -340h-831z" />
<glyph unicode="3" horiz-adv-x="990" d="M85 72l1 258l105 12l52 -193q51 -19 105.5 -30.5t109.5 -11.5q109 0 181 73t72 198q0 128 -74 203.5t-189 75.5h-103v129h93q105 0 165 63t60 178q0 111 -55 165t-169 54q-45 0 -88.5 -9t-80.5 -23l-53 -193l-105 12v268q87 37 177 55.5t178 18.5q184 0 285 -83.5 t101 -240.5q0 -116 -55 -195.5t-138 -122.5q112 -35 176 -122.5t64 -205.5q0 -200 -124 -313.5t-331 -113.5q-96 0 -194.5 28.5t-165.5 65.5z" />
<glyph unicode="4" horiz-adv-x="1026" d="M24 408l579 945h194l-567 -892l5 -10h381v366h190v-366h132l24 -100l-156 -34v-185l152 -34l-20 -98h-495l-20 98l193 34v190h-569z" />
<glyph unicode="5" horiz-adv-x="1043" d="M110 66v257l115 8l61 -194q30 -11 85.5 -20.5t116.5 -9.5q116 0 198.5 82t82.5 219q0 131 -78.5 204t-212.5 73q-64 0 -124 -9t-129 -34l-96 87l35 624h713v-170h-584l-26 -405q45 19 108.5 31.5t121.5 12.5q218 0 340 -99.5t122 -291.5q0 -199 -140.5 -326t-343.5 -127 q-94 0 -196.5 27.5t-168.5 60.5z" />
<glyph unicode="6" horiz-adv-x="1051" d="M104 500v72q0 353 184 578t444 225q45 0 83 -5.5t79 -16.5v-116q-65 6 -91 7.5t-54 1.5q-190 0 -320 -162.5t-130 -392.5l10 -4q57 44 127.5 72t151.5 28q182 0 288.5 -104t106.5 -256v-29q0 -197 -121.5 -308.5t-316.5 -111.5q-212 0 -326.5 137t-114.5 385zM299 521 q0 -197 75 -305.5t188 -108.5q107 0 169 72t62 193v16q0 124 -71.5 197t-192.5 73q-65 0 -122.5 -15t-107.5 -36v-86z" />
<glyph unicode="7" horiz-adv-x="926" d="M50 988v365h888v-93l-515 -1260h-179l508 1173l-6 10h-528l-53 -203z" />
<glyph unicode="8" horiz-adv-x="1018" d="M84 304q0 123 75 220t202 147q-108 58 -167 136t-59 200q0 154 111 261t292 107q170 0 262.5 -76.5t92.5 -213.5q0 -109 -71 -199.5t-181 -138.5q143 -61 223 -153.5t80 -217.5q0 -178 -123.5 -288t-335.5 -110q-189 0 -295 84.5t-106 241.5zM274 346q0 -112 60.5 -175.5 t167.5 -63.5t179.5 67.5t72.5 171.5q0 77 -59.5 139.5t-198.5 121.5q-14 6 -28 11.5t-28 12.5q-77 -46 -121.5 -117.5t-44.5 -167.5zM324 1032q0 -102 60.5 -157t172.5 -95q69 38 107.5 104.5t38.5 164.5q0 94 -46 145.5t-134 51.5q-90 0 -144.5 -61t-54.5 -153z" />
<glyph unicode="9" horiz-adv-x="1058" d="M94 902v29q0 201 113 322.5t317 121.5q210 0 320 -130.5t110 -400.5v-78q0 -387 -168 -587.5t-462 -200.5q-46 0 -92.5 6.5t-84.5 16.5v116q32 -5 68 -7.5t80 -2.5q207 0 337.5 148.5t130.5 386.5l-10 4q-44 -41 -122 -72t-161 -31q-160 0 -268 102t-108 257zM284 941 q0 -118 68 -193.5t177 -75.5q60 0 122.5 15.5t111.5 38.5v72q0 215 -65 331.5t-189 116.5q-113 0 -169 -75t-56 -214v-16z" />
<glyph unicode=":" horiz-adv-x="596" d="M152 79q0 34 8 65.5t21.5 55t32 37.5t39.5 14q36 0 67 -8t54.5 -22.5t36.5 -33t13 -39.5q0 -34 -8 -64.5t-21.5 -54t-32.5 -37.5t-40 -14q-36 0 -67 8t-54 21.5t-36 32t-13 39.5zM152 844q0 34 8 65.5t22 55t32 37.5t39 14q36 0 67 -8t54.5 -22t36.5 -33t13 -40 q0 -34 -8 -64.5t-22 -54t-32.5 -37.5t-39.5 -14q-36 0 -67 8t-54 22t-36 32t-13 39z" />
<glyph unicode=";" horiz-adv-x="601" d="M152 79q0 34 8 65.5t22 55t32 37.5t39 14q39 0 81 -12t69 -41q9 -9 17 -22t14 -32t10 -44.5t4 -60.5q0 -50 -7.5 -97t-30 -95.5t-65 -100.5t-111.5 -112l-68 80q85 71 118 126t33 96q0 20 -16 31t-39 17q-49 13 -79.5 38t-30.5 57zM152 844q0 34 8 65.5t22 55t32 37.5 t39 14q36 0 67 -8t54.5 -22t36.5 -33t13 -40q0 -34 -8 -64.5t-22 -54t-32.5 -37.5t-39.5 -14q-36 0 -67 8t-54 22t-36 32t-13 39z" />
<glyph unicode="&#x3c;" horiz-adv-x="1148" d="M140 555v96l798 374h30v-139l-592 -278v-10l592 -277v-140h-30z" />
<glyph unicode="=" horiz-adv-x="1122" d="M160 307v157h802v-157h-802zM160 770v157h802v-157h-802z" />
<glyph unicode="&#x3e;" horiz-adv-x="1148" d="M180 181v140l592 277v10l-592 278v139h30l798 -374v-96l-798 -374h-30z" />
<glyph unicode="?" horiz-adv-x="1019" d="M120 1202v277q46 23 106 41q51 16 122.5 29t161.5 13q98 0 174.5 -18.5t128.5 -54.5t79 -88t27 -119q0 -57 -11 -103t-37 -89.5t-68.5 -89.5t-105.5 -104l-151 -138q-62 -56 -90.5 -97.5t-28.5 -84.5q0 -39 24 -59.5t68 -20.5q28 0 53.5 4.5t44.5 10.5q22 7 41 16v-101 q-22 -14 -50 -25q-24 -10 -57.5 -17.5t-75.5 -7.5q-45 0 -86.5 12t-73 37t-50 62t-18.5 88q0 36 9 71t30 71.5t54.5 75.5t82.5 84l152 140q45 42 76.5 74.5t51 62t28 58t8.5 61.5q0 35 -14 65.5t-44.5 53.5t-79 36.5t-118.5 13.5q-44 0 -77.5 -5t-56.5 -11q-27 -7 -47 -16 l-70 -225zM296 79q0 34 8 65.5t21.5 55t32 37.5t39.5 14q36 0 67 -8t54.5 -22.5t36.5 -33t13 -39.5q0 -34 -8 -64.5t-21.5 -54t-32.5 -37.5t-40 -14q-36 0 -67 8t-54 21.5t-36 32t-13 39.5z" />
<glyph unicode="@" horiz-adv-x="1860" d="M140 350q0 151 32.5 285.5t92.5 248.5t145.5 205t191 154.5t229 97.5t259.5 34q168 0 300 -45t223 -127t139 -197.5t48 -255.5q0 -123 -22.5 -217.5t-60.5 -165.5t-87 -120t-102 -80t-106 -46.5t-98 -18.5l-146 -14l-81 78l26 190q-6 -11 -20.5 -35t-37.5 -54t-53 -61.5 t-66 -57.5t-77.5 -43t-87.5 -17q-65 0 -111.5 19t-75 60.5t-37 107.5t3.5 160l12 93q15 112 53 209.5t98 170t142.5 114t185.5 41.5q61 0 121 -12.5t109 -26.5q56 -18 109 -39l-112 -796q35 2 73.5 13t76.5 34t72.5 60.5t61 94.5t42 135.5t15.5 183.5q0 130 -33 231.5 t-102 171.5t-174.5 106t-250.5 36q-106 0 -202.5 -31.5t-178.5 -89t-148.5 -137.5t-113.5 -177.5t-72 -209t-25 -230.5q0 -163 50 -272.5t134.5 -175.5t197 -94t238.5 -28q105 0 195 17t157 38q78 25 144 56v-86q-71 -41 -156 -73q-73 -27 -170.5 -49.5t-209.5 -22.5 q-109 0 -207.5 14t-183 45.5t-153 82.5t-116.5 124.5t-74 171t-26 222.5zM752 280.5q21 -84.5 87 -84.5q37 0 72.5 19t67.5 48t60 64t49.5 67t35 56.5t17.5 32.5l64 463q-21 9 -47 16q-22 6 -51 11.5t-61 5.5q-35 0 -66 -8t-55 -17q-28 -11 -52 -25q-24 -38 -45 -93 q-19 -47 -38 -115.5t-32 -161.5l-5 -36q-22 -158 -1 -242.5z" />
<glyph unicode="A" horiz-adv-x="1218" d="M-8 98l108 29l440 1226h149l429 -1226l108 -29l-20 -98h-385l-20 98l128 29l-94 279h-491l-96 -279l128 -29l-20 -98h-344zM389 535h402l-194 569h-10z" />
<glyph unicode="B" horiz-adv-x="1160" d="M76 98l153 34v1089l-153 34l20 98h477q212 0 322.5 -77.5t110.5 -234.5q0 -114 -57 -194.5t-140 -122.5l2 -16q111 -21 182 -97.5t71 -192.5q0 -193 -117.5 -305.5t-322.5 -112.5h-528zM419 129h137q92 0 161 12t128 37q13 41 21 95t8 119q0 117 -81 181.5t-220 64.5 h-154v-509zM419 767h131q78 0 133.5 12.5t93.5 26.5q14 38 26.5 90t12.5 117q0 108 -71.5 159.5t-210.5 51.5h-115v-457z" />
<glyph unicode="C" horiz-adv-x="1176" d="M100 515v89q0 381 154 576t451 195q95 0 192 -15t171 -44l21 -270l-105 -22l-83 195q-38 12 -97 19.5t-126 7.5q-86 0 -163.5 -23t-135.5 -65q-40 -92 -64.5 -220t-24.5 -255v-133q0 -214 117.5 -328.5t315.5 -114.5q94 0 192.5 29.5t176.5 74.5v-106q-93 -60 -206 -93.5 t-223 -33.5q-278 0 -420.5 134t-142.5 403z" />
<glyph unicode="D" horiz-adv-x="1362" d="M78 98l153 34v1089l-153 34l20 98h540q302 0 455 -151.5t153 -436.5v-78q0 -318 -155 -502.5t-430 -184.5h-563zM421 129h211q78 0 148 12.5t130 36.5q62 77 104 195t42 249v94q0 241 -115.5 374.5t-341.5 133.5h-178v-1095z" />
<glyph unicode="E" horiz-adv-x="1191" d="M76 98l153 34v1089l-153 34l20 98h937l24 -300l-103 -22l-83 193h-452v-452h357l34 122l99 -20v-334l-99 -20l-34 123h-357v-514h481l83 193l104 -23l-24 -299h-967z" />
<glyph unicode="F" horiz-adv-x="1043" d="M72 98l153 34v1089l-153 34l20 98h877l24 -300l-103 -22l-83 193h-392v-452h320l34 122l98 -20v-334l-98 -20l-34 123h-320v-511l202 -34l-20 -98h-505z" />
<glyph unicode="G" horiz-adv-x="1300" d="M102 505v89q0 378 157.5 579.5t454.5 201.5q98 0 195 -15t168 -42l21 -270l-105 -22l-82 193q-38 11 -98 19t-122 8q-87 0 -165.5 -23.5t-134.5 -64.5q-46 -93 -72.5 -216.5t-26.5 -258.5v-133q0 -211 121 -327t290 -116q52 0 103 10t96 26v361l-153 34l20 108h455 l20 -108l-152 -34v-399q-96 -59 -211 -93t-228 -34q-262 0 -406.5 135t-144.5 392z" />
<glyph unicode="H" horiz-adv-x="1459" d="M72 98l153 34v1089l-153 34l20 98h455l20 -98l-152 -34v-443h624v443l-152 34l20 98h456l20 -98l-154 -34v-1089l154 -34l-20 -98h-456l-20 98l152 34v517h-624v-517l152 -34l-20 -98h-455z" />
<glyph unicode="I" horiz-adv-x="643" d="M72 98l153 34v1089l-153 34l20 98h455l20 -98l-152 -34v-1089l152 -34l-20 -98h-455z" />
<glyph unicode="J" horiz-adv-x="859" d="M70 291l103 22l82 -192q21 -8 41 -11.5t37 -3.5q24 0 49 6t44 15q14 38 22.5 101.5t8.5 140.5v852l-193 34l20 98h495l20 -98l-152 -34v-885q0 -174 -84 -266t-251 -92q-60 0 -120 16t-101 37z" />
<glyph unicode="K" horiz-adv-x="1304" d="M72 98l153 34v1089l-153 34l20 98h455l20 -98l-152 -34v-557l14 -6l544 575l-110 21l20 99h362l20 -98l-122 -34l-433 -455l456 -633l146 -35l-20 -98h-244l-459 639l-174 -183v-324l152 -34l-20 -98h-455z" />
<glyph unicode="L" horiz-adv-x="1018" d="M74 98l153 34v1089l-153 34l20 98h455l20 -98l-152 -34v-1092h336l83 193l104 -22l-25 -300h-821z" />
<glyph unicode="M" horiz-adv-x="1922" d="M72 98l153 34v1089l-153 34l20 98h427l436 -1042h16l418 1042h437l20 -98l-152 -34v-1089l152 -34l-20 -98h-455l-20 98l153 34v1078h-16l-492 -1210h-105l-510 1210h-16v-1078l152 -34l-20 -98h-405z" />
<glyph unicode="N" horiz-adv-x="1532" d="M72 98l153 34v1089l-153 34l20 98h420l655 -1217h16v1085l-154 34l20 98h407l20 -98l-152 -34v-1221h-287l-656 1218h-16v-1086l152 -34l-20 -98h-405z" />
<glyph unicode="O" horiz-adv-x="1345" d="M102 525v79q0 389 148 580t433 191q278 0 419 -136.5t141 -411.5v-78q0 -377 -144 -574t-436 -197q-279 0 -420 137.5t-141 409.5zM292 570q0 -221 112.5 -342t288.5 -121q88 0 165.5 26.5t126.5 62.5q32 100 50 220t18 234v133q0 236 -104.5 349.5t-295.5 113.5 q-89 0 -168 -27.5t-124 -60.5q-30 -92 -49.5 -206.5t-19.5 -248.5v-133z" />
<glyph unicode="P" horiz-adv-x="1102" d="M74 98l153 34v1089l-153 34l20 98h501q222 0 339.5 -83.5t117.5 -261.5q0 -186 -124 -296.5t-310 -110.5h-201v-469l212 -34l-20 -98h-515zM417 730h160q73 0 134 9.5t116 28.5q16 51 23.5 102t7.5 98q0 118 -79 187t-232 69h-130v-494z" />
<glyph unicode="Q" horiz-adv-x="1360" d="M100 525v79q0 376 145.5 573.5t435.5 197.5q278 0 419 -136.5t141 -411.5v-78q0 -449 -206 -640q37 -79 74.5 -126.5t94.5 -47.5q35 0 69 6.5t65 18.5v-100q-34 -23 -79.5 -38.5t-96.5 -15.5q-94 0 -157 43.5t-109 139.5l-13 26q-51 -18 -105 -27.5t-117 -9.5 q-279 0 -420 137.5t-141 409.5zM290 570q0 -30 2 -59t7 -54q32 65 97.5 101.5t153.5 36.5q125 0 215 -62.5t166 -209.5l62 -127q18 55 38 189t20 265v133q0 233 -103.5 348t-296.5 115q-88 0 -169 -26t-133 -62q-11 -38 -21.5 -84t-19 -101.5t-13.5 -122.5t-5 -147v-133z M341 356q0 -86 102.5 -167.5t247.5 -81.5q40 0 74 4.5t65 12.5l-48 99q-65 128 -140 185.5t-163 57.5q-138 0 -138 -110z" />
<glyph unicode="R" horiz-adv-x="1205" d="M72 98l153 34v1089l-153 34l20 98h492q208 0 318 -84.5t110 -258.5q0 -130 -59.5 -226.5t-162.5 -144.5l-6 -19l277 -488l146 -34l-20 -98h-249l-340 601h-183v-469l152 -34l-20 -98h-455zM415 730h123q62 0 125.5 9t125.5 30q11 45 20 98t9 102q0 119 -76.5 187 t-225.5 68h-101v-494z" />
<glyph unicode="S" horiz-adv-x="1066" d="M109 300l117 25l82 -194q37 -11 82.5 -17.5t102.5 -6.5q74 0 141.5 10t125.5 28q10 25 20 66.5t10 98.5q0 63 -59 131.5t-255 186.5q-254 150 -310.5 232t-56.5 179q0 146 125.5 241t346.5 95q84 0 168.5 -12t163.5 -40l21 -270l-105 -22l-82 193q-41 11 -83.5 16.5 t-88.5 5.5q-77 0 -144 -11t-113 -27q-9 -30 -14 -63.5t-5 -70.5q0 -71 59.5 -130.5t260.5 -181.5q188 -110 274.5 -201.5t86.5 -215.5q0 -165 -128.5 -266t-343.5 -101q-120 0 -219.5 18.5t-158.5 44.5z" />
<glyph unicode="T" horiz-adv-x="1139" d="M14 1063l15 290h1082l14 -290l-98 -9l-63 170h-299v-1092l153 -34l-20 -98h-456l-20 98l153 34v1092h-300l-62 -170z" />
<glyph unicode="U" horiz-adv-x="1358" d="M16 1255l20 98h456l20 -98l-152 -34v-675q0 -223 94 -331t259 -108q79 0 148 23t110 53q34 62 56 150t22 188v700l-153 34l20 98h406l20 -98l-152 -34v-677q0 -291 -127 -428.5t-390 -137.5q-249 0 -376 124.5t-127 388.5v730z" />
<glyph unicode="V" horiz-adv-x="1180" d="M-44 1254l20 99h406l20 -99l-149 -29l351 -1043h16l350 1043l-149 29l20 99h363l20 -99l-108 -28l-430 -1226h-191l-432 1226z" />
<glyph unicode="W" horiz-adv-x="1998" d="M-44 1254l20 99h407l20 -99l-149 -29l335 -993h16l342 1121h191l334 -1121h16l304 993l-153 29l20 99h363l20 -99l-103 -27l-386 -1227h-191l-333 1107h-16l-337 -1107h-192l-422 1227z" />
<glyph unicode="X" horiz-adv-x="1273" d="M36 98l117 29l381 575l-346 524l-116 28l20 99h401l20 -99l-118 -28l267 -403h16l258 402l-120 29l20 99h355l20 -99l-118 -28l-352 -526l379 -573l117 -29l-20 -98h-401l-20 98l118 29l-299 453h-16l-289 -452l117 -30l-20 -98h-351z" />
<glyph unicode="Y" horiz-adv-x="1122" d="M-52 1254l20 99h410l20 -99l-132 -28l321 -504h16l304 504l-125 28l20 99h352l20 -99l-111 -28l-395 -650v-444l152 -34l-20 -98h-455l-20 98l153 34v446l-416 648z" />
<glyph unicode="Z" horiz-adv-x="1130" d="M82 0v125l715 1085l-5 14h-516l-82 -193l-104 22l25 300h908v-124l-716 -1086l5 -14h557l82 193l103 -22l-24 -300h-948z" />
<glyph unicode="[" horiz-adv-x="634" d="M180 -457v2134h358v-96h-191v-1942h191v-96h-358z" />
<glyph unicode="\" horiz-adv-x="833" d="M40 1520v20h165l568 -1815v-20h-165z" />
<glyph unicode="]" horiz-adv-x="634" d="M96 -361h191v1942h-191v96h358v-2134h-358v96z" />
<glyph unicode="^" horiz-adv-x="1104" d="M140 1049v30l364 461h96l364 -461v-30h-139l-268 335h-10l-267 -335h-140z" />
<glyph unicode="_" horiz-adv-x="1116" d="M60 -235h1036v-144h-1036v144z" />
<glyph unicode="`" horiz-adv-x="832" d="M141 1594v66l175 10l233 -363v-32l-118 -10z" />
<glyph unicode="a" horiz-adv-x="1150" d="M108 237q0 183 162 276.5t489 93.5v95q0 150 -54.5 217.5t-190.5 67.5q-32 0 -73.5 -4t-76.5 -11l-60 -212l-98 10v283q60 21 148.5 37.5t178.5 16.5q205 0 305.5 -90.5t100.5 -281.5v-603l173 -34l-20 -98l-255 -22l-58 177q-78 -95 -167 -136t-193 -41 q-140 0 -225.5 70t-85.5 189zM288 275q0 -83 55 -130t144 -47q75 0 148 37.5t124 89.5v262q-150 0 -266 -19.5t-177 -52.5q-12 -28 -20 -64t-8 -76z" />
<glyph unicode="b" horiz-adv-x="1122" d="M4 1442l20 98l313 22v-615l14 -6q60 79 135.5 122.5t182.5 43.5q172 0 265.5 -111.5t93.5 -329.5v-94q0 -277 -126.5 -435.5t-336.5 -158.5q-86 0 -204.5 21t-203.5 44v1365zM337 125q49 -10 115.5 -18.5t132.5 -8.5q61 0 115.5 19t86.5 43q21 44 41 146t20 217v119 q0 173 -62 259t-180 86q-69 0 -142 -44.5t-127 -104.5v-713z" />
<glyph unicode="c" horiz-adv-x="972" d="M96 399v93q0 296 126.5 455.5t349.5 159.5q76 0 152.5 -15t152.5 -48l19 -234l-110 -23l-69 179q-34 10 -70 15.5t-78 5.5q-62 0 -121.5 -15t-111.5 -45q-22 -60 -41 -159.5t-19 -215.5v-109q0 -160 93 -252.5t224 -92.5q72 0 145.5 18.5t149.5 54.5v-96 q-69 -43 -158.5 -70t-185.5 -27q-211 0 -329.5 108.5t-118.5 312.5z" />
<glyph unicode="d" horiz-adv-x="1186" d="M98 413v93q0 281 126.5 441t351.5 160q42 0 96.5 -5.5t126.5 -18.5v325l-153 34l20 98l313 22v-1430l153 -34l-20 -98l-235 -22l-58 177q-73 -95 -159 -137q-83 -40 -172 -40h-8q-179 0 -280.5 112.5t-101.5 322.5zM278 434q0 -163 70 -249.5t187 -86.5q73 0 145.5 39.5 t118.5 87.5v735q-58 12 -122 19.5t-121 7.5q-65 0 -125 -18.5t-103 -48.5q-24 -78 -37 -171.5t-13 -195.5v-119z" />
<glyph unicode="e" horiz-adv-x="1034" d="M96 414v83q0 287 127.5 448.5t347.5 161.5q203 0 293 -103.5t90 -360.5v-120h-678v-76q0 -168 92.5 -258.5t220.5 -90.5q83 0 163 18t149 47v-96q-87 -46 -182.5 -67.5t-189.5 -21.5q-206 0 -319.5 112t-113.5 324zM279 643h485q0 182 -52.5 263t-168.5 81 q-59 0 -116 -18t-91 -42q-22 -56 -37.5 -136t-19.5 -148z" />
<glyph unicode="f" horiz-adv-x="747" d="M96 987l20 98h143v108q0 185 77 277t222 92q46 0 94.5 -11t82.5 -26l-43 -131q-57 19 -115.5 30t-107.5 11q-12 -30 -21 -88.5t-9 -137.5v-124h214l20 -98l-234 -34v-821l213 -34l-20 -98h-506l-20 98l153 34v821z" />
<glyph unicode="g" horiz-adv-x="1075" d="M92 -259q0 67 54.5 135t154.5 133q-72 14 -113 52t-41 100q0 59 47.5 124t125.5 124q-86 41 -129.5 111t-43.5 150v26q0 196 109 303.5t291 107.5q29 0 73.5 -6.5t79.5 -15.5h314l18 -107h-208l-4 -10q43 -29 75 -87t32 -121v-25q0 -168 -109.5 -267.5t-290.5 -99.5 q-65 0 -119 12q-54 -50 -87.5 -94.5t-33.5 -71.5q0 -26 18.5 -40t52.5 -14h224q238 0 356.5 -69t118.5 -217q0 -162 -138.5 -246.5t-393.5 -84.5q-222 0 -327.5 47t-105.5 151zM252 -215q0 -71 73.5 -96.5t259.5 -25.5q77 0 155.5 12.5t139.5 38.5q17 24 27 57.5t10 67.5 q0 91 -72.5 126t-250.5 35h-183q-70 -52 -114.5 -109t-44.5 -106zM327 706q0 -97 71 -157.5t153 -60.5q48 0 86.5 7.5t69.5 22.5q17 32 28.5 87.5t11.5 120.5v38q0 105 -66 164t-158 59q-46 0 -87 -8.5t-69 -21.5q-21 -54 -30.5 -110t-9.5 -103v-38z" />
<glyph unicode="h" horiz-adv-x="1324" d="M83 98l153 34v1276l-153 34l20 98l313 22v-615l14 -6q62 79 146 122.5t185 43.5q178 0 262.5 -94t84.5 -287v-594l153 -34l-20 -98h-446l-20 98l153 34v560q0 159 -53.5 227t-172.5 68q-76 0 -153.5 -43t-132.5 -106v-706l153 -34l-20 -98h-446z" />
<glyph unicode="i" horiz-adv-x="660" d="M106 98l153 34v821l-153 34l20 98l313 22v-975l153 -34l-20 -98h-446zM212 1401q0 56 29.5 97.5t68.5 41.5q57 0 97.5 -29t40.5 -70q0 -56 -29.5 -97t-68.5 -41q-56 0 -97 29t-41 69z" />
<glyph unicode="j" horiz-adv-x="569" d="M-104 -420l36 131q60 -16 132.5 -28.5t127.5 -12.5q18 38 29 101.5t11 142.5v1039l-183 34l20 98l343 22v-1154q0 -208 -71 -309t-236 -101q-54 0 -109 10t-100 27zM185 1401q0 56 29.5 97.5t68.5 41.5q57 0 97.5 -29t40.5 -70q0 -56 -29.5 -97t-68.5 -41q-56 0 -97 29 t-41 69z" />
<glyph unicode="k" horiz-adv-x="1185" d="M84 98l153 34v1276l-153 34l20 98l313 22v-989l14 -6l429 401l-92 19l20 98h322l20 -98l-87 -19l-359 -325l343 -511l134 -34l-20 -98h-223l-357 532l-144 -130v-270l153 -34l-20 -98h-446z" />
<glyph unicode="l" horiz-adv-x="642" d="M93 98l153 34v1276l-153 34l20 98l313 22v-1430l153 -34l-20 -98h-446z" />
<glyph unicode="m" horiz-adv-x="2034" d="M104 98l153 34v821l-153 34l20 98l235 22l58 -178q72 86 167.5 132t195.5 46q131 0 208.5 -46.5t109.5 -131.5q92 96 185 137t189 41q178 0 263.5 -94.5t85.5 -286.5v-594l153 -34l-20 -98h-446l-20 98l153 34v550q0 155 -55.5 230t-186.5 75q-58 0 -128.5 -33 t-141.5 -96v-726l153 -34l-20 -98h-446l-20 98l153 34v550q0 156 -53.5 230.5t-188.5 74.5q-60 0 -132 -35.5t-138 -93.5v-726l153 -34l-20 -98h-446z" />
<glyph unicode="n" horiz-adv-x="1346" d="M106 98l153 34v821l-153 34l20 98l235 22l58 -178q74 84 167 131t196 47q179 0 264 -93.5t85 -287.5v-594l153 -34l-20 -98h-446l-20 98l153 34v550q0 153 -49.5 229t-178.5 76q-67 0 -140.5 -33t-143.5 -96v-726l153 -34l-20 -98h-446z" />
<glyph unicode="o" d="M96 419v93q0 276 126.5 435.5t334.5 159.5q218 0 339.5 -116.5t121.5 -334.5v-94q0 -265 -126 -424.5t-345 -159.5q-218 0 -334.5 116.5t-116.5 324.5zM276 453q0 -168 86.5 -261.5t214.5 -93.5q50 0 103 16t98 44q31 65 45.5 155t14.5 190v119q0 171 -78.5 266.5 t-222.5 98.5q-55 0 -110 -17.5t-91 -42.5q-26 -59 -43 -153t-17 -202v-119z" />
<glyph unicode="p" horiz-adv-x="1160" d="M30 -336l153 34v1255l-153 34l20 98l235 22l58 -178q75 90 162 134t186 44q183 0 278 -114.5t95 -336.5v-94q0 -271 -123 -427.5t-335 -156.5q-61 0 -120.5 6.5t-122.5 18.5v-305l153 -34l-20 -99h-446zM363 125q40 -9 108.5 -18t124.5 -9q61 0 120 14.5t111 45.5 q21 55 39 151t18 194v119q0 180 -65.5 272.5t-191.5 92.5q-63 0 -133 -35.5t-131 -93.5v-733z" />
<glyph unicode="q" horiz-adv-x="1085" d="M100 409v83q0 279 125 447t330 168q87 0 202 -19.5t214 -44.5v-1500l-313 22l-20 98l153 34v419l-10 4q-64 -72 -141 -107t-168 -35q-184 0 -278 110.5t-94 320.5zM280 453q0 -178 68 -266.5t180 -88.5q72 0 144 38.5t119 88.5v734q-55 12 -117 20t-121 8 q-64 0 -123.5 -20t-95.5 -48q-25 -71 -39.5 -160.5t-14.5 -186.5v-119z" />
<glyph unicode="r" horiz-adv-x="885" d="M106 98l153 34v821l-153 34l20 98l235 22l58 -178q48 90 112.5 134t150.5 44q41 0 80.5 -11t68.5 -31l-25 -283h-112l-26 185q-19 8 -45 8q-51 0 -102 -36.5t-82 -80.5v-726l186 -34l-20 -98h-479z" />
<glyph unicode="s" horiz-adv-x="970" d="M118 820q0 125 105 206t298 81q90 0 175 -18.5t146 -49.5l9 -241l-109 -20l-59 189q-40 11 -85 15.5t-83 4.5q-53 0 -103 -7.5t-92 -20.5q-9 -16 -15.5 -41.5t-6.5 -52.5q0 -54 45.5 -101.5t227.5 -142.5q208 -106 263.5 -181.5t55.5 -168.5q0 -130 -114.5 -211.5 t-303.5 -81.5q-102 0 -191 21t-145 49l-10 240l109 20l58 -187q39 -12 86 -17.5t95 -5.5q54 0 107.5 6.5t108.5 21.5q10 21 15 47.5t5 51.5q0 71 -64 127.5t-248 153.5q-166 87 -223 156t-57 158z" />
<glyph unicode="t" horiz-adv-x="742" d="M28 986l20 99h141l73 293l107 -20v-273h290l20 -99l-310 -32v-645q0 -106 31.5 -158.5t127.5 -52.5q32 0 71 10t81 29v-94q-46 -30 -105.5 -47.5t-119.5 -17.5q-140 0 -203 72t-63 220v684z" />
<glyph unicode="u" horiz-adv-x="1262" d="M38 987l20 98l313 22v-704q0 -156 55 -230.5t187 -74.5q72 0 143 34t127 93v728l-183 34l20 98l343 22v-975l153 -34l-20 -98l-235 -22l-58 178q-81 -95 -171.5 -136.5t-199.5 -41.5q-168 0 -254.5 95t-86.5 286v594z" />
<glyph unicode="v" horiz-adv-x="1062" d="M-12 987l20 98h370l20 -98l-129 -20l278 -835h16l278 835l-129 20l20 98h324l20 -98l-95 -19l-339 -968h-217l-342 968z" />
<glyph unicode="w" horiz-adv-x="1733" d="M-10 987l20 98h371l20 -98l-131 -20l256 -808h16l268 926h183l273 -926h16l233 808l-134 20l20 98h326l20 -98l-94 -18l-295 -969h-212l-258 828h-16l-251 -828h-212l-323 968z" />
<glyph unicode="x" horiz-adv-x="1086" d="M24 98l92 16l333 429l-325 428l-86 16l20 98h350l20 -98l-93 -15l234 -306h16l228 305l-94 16l20 98h303l20 -98l-88 -16l-325 -412l339 -445l92 -16l-20 -98h-357l-20 98l93 15l-246 324h-16l-239 -324l96 -15l-20 -98h-307z" />
<glyph unicode="y" horiz-adv-x="1106" d="M-10 987l20 98h370l20 -98l-125 -19l295 -836h16l296 836l-125 19l20 98h325l20 -98l-97 -19l-357 -966q-90 -249 -177.5 -354t-225.5 -105q-59 0 -119 15t-98 32l36 131q55 -20 129 -35.5t141 -15.5q38 26 74.5 75.5t65.5 129.5l-407 1093z" />
<glyph unicode="z" horiz-adv-x="967" d="M92 0v95l593 868l-6 12h-400l-52 -190l-104 11v289h782v-83l-601 -880l6 -12h431l52 190l104 -11v-289h-805z" />
<glyph unicode="{" horiz-adv-x="814" d="M150 562v96h96q61 0 85.5 24.5t24.5 85.5v629q0 60 21 111.5t58.5 89t89 58.5t111.5 21h78v-96h-21q-91 0 -130.5 -39.5t-39.5 -130.5v-583q0 -62 -10.5 -103t-27 -65.5t-38.5 -34.5t-44 -10v-10q22 0 44 -10t38.5 -34.5t27 -65.5t10.5 -103v-583q0 -91 39.5 -130.5 t130.5 -39.5h21v-96h-78q-60 0 -111.5 21t-89 58.5t-58.5 89t-21 111.5v629q0 61 -24.5 85.5t-85.5 24.5h-96z" />
<glyph unicode="|" horiz-adv-x="658" d="M270 -537v2207h118v-2207h-118z" />
<glyph unicode="}" horiz-adv-x="814" d="M100 -361h21q91 0 130.5 39.5t39.5 130.5v583q0 62 10.5 103t27 65.5t38 34.5t44.5 10v10q-23 0 -44.5 10t-38 34.5t-27 65.5t-10.5 103v583q0 91 -39.5 130.5t-130.5 39.5h-21v96h78q60 0 111.5 -21t89 -58.5t58.5 -89t21 -111.5v-629q0 -61 24.5 -85.5t85.5 -24.5h96 v-96h-96q-61 0 -85.5 -24.5t-24.5 -85.5v-629q0 -60 -21 -111.5t-58.5 -89t-89 -58.5t-111.5 -21h-78v96z" />
<glyph unicode="~" horiz-adv-x="1211" d="M140 524v25q0 56 18.5 99t50.5 72t76 43.5t95 14.5q36 0 80.5 -10t91.5 -24.5t94 -31.5t88.5 -31.5t74.5 -24.5t52 -10t37.5 7.5t33 22.5t23.5 37.5t9 52.5l117 10v-47q0 -53 -17 -95.5t-47 -72t-72 -45.5t-92 -16q-33 0 -77 10t-93 24.5t-99.5 31.5t-95 31.5t-79.5 24.5 t-53 10q-20 0 -39.5 -4t-34.5 -15t-24 -30t-9 -49z" />
<glyph unicode="&#xa1;" horiz-adv-x="572" d="M140 937q0 34 8 64.5t21.5 54t32.5 37.5t40 14q36 0 67 -8t54 -21.5t36 -32t13 -39.5q0 -35 -8 -66t-21.5 -54.5t-32 -37.5t-39.5 -14q-36 0 -67 8t-54.5 22.5t-36.5 33t-13 39.5zM163 -435l37 1150h141l37 -1150l-195 -22z" />
<glyph unicode="&#xa2;" horiz-adv-x="1024" d="M96 399v93q0 141 30 249.5t86 184.5t135.5 120t177.5 56v251h118v-247q68 -3 122.5 -13t92.5 -21q45 -13 79 -28v-255l-122 -14l-48 191q-15 4 -33 8q-16 3 -39 6.5t-52 5.5v-888q60 2 115.5 13.5t97.5 25.5q49 15 92 34v-96q-37 -23 -84 -41q-41 -16 -96.5 -31.5 t-124.5 -21.5v-226h-118v225q-95 5 -173.5 32.5t-135.5 79t-88.5 128t-31.5 179.5zM276 443q0 -72 20.5 -128.5t55 -97.5t79.5 -67.5t94 -39.5v873q-45 -5 -80 -14.5t-59 -18.5q-29 -11 -50 -23q-17 -45 -30 -102q-11 -49 -20.5 -118t-9.5 -155v-109z" />
<glyph unicode="&#xa3;" horiz-adv-x="1101" d="M110 674l100 28q-13 46 -22 84.5t-15 75t-8.5 73.5t-2.5 80q0 72 24 137t75.5 114.5t133 79t196.5 29.5q82 0 147 -13t110 -29q53 -18 93 -41v-277l-106 -15l-72 229q-23 7 -51 13q-25 5 -58.5 9t-75.5 4q-44 0 -80.5 -6.5t-62.5 -14.5q-31 -9 -55 -20q-11 -22 -19 -50 q-8 -24 -13.5 -58.5t-5.5 -77.5q0 -81 11 -156.5t34 -157.5h436v-129h-401q14 -57 22.5 -107.5t8.5 -102.5q0 -53 -7 -98t-15 -78q-10 -39 -21 -70h408l83 193l104 -22l-25 -300h-841l-20 98l131 29q9 28 16 61q6 29 11.5 67t5.5 84q0 29 -2.5 56.5t-7.5 56.5t-12.5 61.5 t-17.5 71.5h-113z" />
<glyph unicode="&#xa4;" horiz-adv-x="1271" d="M180 970l128 107l138 -165q42 23 90 35t100 12q51 0 98.5 -12t89.5 -34l138 164l129 -109l-138 -164q35 -46 54.5 -101t19.5 -115q0 -65 -22 -123t-61 -106l144 -170l-128 -107l-148 175q-82 -40 -176 -40q-48 0 -92 10t-84 29l-146 -174l-129 109l141 169 q-38 48 -59.5 105.5t-21.5 122.5q0 61 19.5 116t54.5 101zM421 588q0 -56 17 -98t46 -71t68.5 -43.5t83.5 -14.5t83 14.5t68 43.5t46 71t17 98q0 55 -17 97.5t-46 71.5t-68 43.5t-83 14.5t-83.5 -14.5t-68.5 -43.5t-46 -71.5t-17 -97.5z" />
<glyph unicode="&#xa5;" horiz-adv-x="1122" d="M-52 1254l20 99h410l20 -99l-131 -28l323 -504h10l306 504l-124 28l20 99h352l20 -99l-111 -28l-360 -591h247v-127h-282v-128h282v-127h-282v-121l152 -34l-20 -98h-455l-20 98l153 34v121h-291v127h291v128h-291v127h254l-379 591z" />
<glyph unicode="&#xa6;" horiz-adv-x="658" d="M270 320h118v-857h-118v857zM270 813v857h118v-857h-118z" />
<glyph unicode="&#xa7;" horiz-adv-x="1169" d="M130 777q0 89 41 154t104 113q-32 34 -49 72.5t-17 86.5q0 58 20 109t67 89t125.5 60.5t195.5 22.5q80 0 142.5 -10.5t105.5 -23.5q50 -15 88 -34l-24 -260h-111l-24 187q-22 6 -49 10q-23 4 -54.5 7.5t-69.5 3.5q-54 0 -96 -4t-72 -9q-35 -6 -62 -13q-7 -11 -11 -26 q-5 -13 -8 -30.5t-3 -39.5q0 -32 17 -58.5t55.5 -55.5t101 -64t153.5 -84q84 -45 151 -87.5t114.5 -89t72.5 -100t25 -120.5q0 -87 -41.5 -149.5t-106.5 -106.5q39 -39 59 -83t20 -100q0 -71 -27 -122.5t-79 -84.5t-128.5 -49t-174.5 -16q-85 0 -152 10.5t-115 24.5 q-55 15 -98 35l22 260h110l25 -187q23 -7 54 -12q26 -5 63 -8t84 -3q52 0 95 4.5t75 9.5q37 6 66 15q6 12 10 27q4 13 7 31t3 40q0 32 -21 62.5t-67 65t-119 75.5t-176 93q-75 38 -134 75.5t-99.5 80t-62 92.5t-21.5 114zM290 812q0 -38 14 -69t46 -61.5t85 -63t130 -73.5 q78 -42 142 -77t114 -69q38 32 58 72t20 91q0 41 -18.5 74.5t-57.5 65.5t-99.5 67.5t-144.5 80.5q-65 35 -119.5 65t-99.5 60q-38 -35 -54 -72.5t-16 -90.5z" />
<glyph unicode="&#xa8;" horiz-adv-x="1013" d="M200 1384q0 25 7 48t19.5 40.5t28.5 27.5t34 10q26 0 49 -7t39.5 -19.5t26 -29t9.5 -34.5q0 -25 -7 -47.5t-19 -40t-28 -27.5t-34 -10q-26 0 -49 7t-40 19.5t-26.5 28.5t-9.5 34zM600 1384q0 25 7 48t19 40.5t28 27.5t34 10q26 0 49 -7t40 -19.5t26.5 -29t9.5 -34.5 q0 -25 -7 -47.5t-19.5 -40t-28.5 -27.5t-34 -10q-26 0 -49 7t-39.5 19.5t-26 28.5t-9.5 34z" />
<glyph unicode="&#xa9;" horiz-adv-x="1467" d="M120 949q0 127 48.5 239t131.5 195t195 131t239 48t239 -48t195 -131t131 -195t48 -239t-48 -239t-131 -195t-195 -131.5t-239 -48.5q-85 0 -163.5 22t-146.5 62t-124 96t-96 124t-62 146.5t-22 163.5zM259 949q0 -99 37 -185.5t101.5 -151t151 -101.5t185.5 -37 t185.5 37t151 101.5t101.5 151t37 185.5t-37 185.5t-101.5 151t-151 101.5t-185.5 37t-185.5 -37t-151 -101.5t-101.5 -151t-37 -185.5zM455 861v58q0 97 21 169.5t60 120.5t94 72t123 24q44 0 79 -6t60 -13q29 -9 52 -19l12 -193l-68 -14l-44 137q-11 3 -25 6q-12 2 -29 4 t-38 2q-29 0 -52 -4.5t-39 -9.5q-19 -6 -33 -14q-7 -27 -12 -61q-5 -29 -8 -70.5t-3 -92.5v-68q0 -51 14.5 -88t38 -61.5t52 -36t57.5 -11.5q36 0 69 7t59 16q30 10 57 23v-84q-28 -17 -61 -30q-29 -11 -68.5 -20t-87.5 -9q-61 0 -112.5 16t-88.5 48.5t-58 82.5t-21 119z " />
<glyph unicode="&#xaa;" horiz-adv-x="627" d="M40 940q0 96 78.5 147.5t251.5 51.5v33q0 25 -3.5 44.5t-7.5 33.5q-4 16 -10 29q-20 7 -38.5 11.5t-53.5 4.5q-17 0 -32.5 -1t-26.5 -3q-14 -2 -25 -4l-30 -116l-69 5v172q23 7 52 13q25 5 58.5 9.5t75.5 4.5q111 0 173 -42t62 -144v-282l92 -17l-10 -69l-168 -11l-27 82 q-9 -11 -25.5 -25t-40.5 -26.5t-54.5 -21.5t-67.5 -9q-72 0 -113 33.5t-41 96.5zM165 958q0 -37 22.5 -52.5t56.5 -15.5q25 0 48 10t40 22q20 14 38 32v105q-51 0 -87.5 -6t-60.5 -13q-28 -9 -46 -19q-3 -7 -6 -17q-5 -18 -5 -46z" />
<glyph unicode="&#xab;" horiz-adv-x="1063" d="M150 536v60l395 421h85v-22l-300 -419v-20l300 -419v-22h-85zM542 548v36l266 389h85v-22l-167 -385l167 -385v-22h-85z" />
<glyph unicode="&#xac;" horiz-adv-x="1193" d="M140 622v147h893v-464h-147v317h-746z" />
<glyph unicode="&#xad;" horiz-adv-x="969" d="M200 516l30 149l589 41l-30 -149z" />
<glyph unicode="&#xae;" horiz-adv-x="1467" d="M120 949q0 127 48.5 239t131.5 195t195 131t239 48t239 -48t195 -131t131 -195t48 -239t-48 -239t-131 -195t-195 -131.5t-239 -48.5q-85 0 -163.5 22t-146.5 62t-124 96t-96 124t-62 146.5t-22 163.5zM259 949q0 -99 37 -185.5t101.5 -151t151 -101.5t185.5 -37 t185.5 37t151 101.5t101.5 151t37 185.5t-37 185.5t-101.5 151t-151 101.5t-185.5 37t-185.5 -37t-151 -101.5t-101.5 -151t-37 -185.5zM477 700l70 15v484l-70 17l9 55h261q103 0 156 -40.5t53 -127.5q0 -67 -30 -108t-74 -68v-6l124 -207l72 -14l-9 -55h-156l-155 266h-59 v-196l70 -15l-9 -55h-244zM669 995h56q22 0 39 2.5t29 5.5q14 4 25 9q3 10 7 23q2 11 4.5 26t2.5 33q0 38 -27 65.5t-90 27.5h-46v-192z" />
<glyph unicode="&#xaf;" horiz-adv-x="1030" d="M150 1353l19 120h711l-20 -120h-710z" />
<glyph unicode="&#xb0;" horiz-adv-x="614" d="M80 1305q0 53 20 100t55 82t82 55t100 20t100 -20t82 -55t55 -82t20 -100t-20 -100t-55 -82t-82 -55t-100 -20t-100 20t-82 55t-55 82t-20 100zM209 1305q0 -36 10 -63.5t27.5 -46.5t40.5 -28.5t50 -9.5t50 9.5t40.5 28.5t27.5 46.5t10 63.5t-10 63.5t-27.5 46.5 t-40.5 28.5t-50 9.5t-50 -9.5t-40.5 -28.5t-27.5 -46.5t-10 -63.5z" />
<glyph unicode="&#xb1;" horiz-adv-x="1063" d="M160 620v147h298v318h147v-318h298v-147h-298v-318h-147v318h-298zM187 0v147h693v-147h-693z" />
<glyph unicode="&#xb2;" horiz-adv-x="581" d="M48 1085v82q70 70 130 130.5t104 112.5t68.5 96.5t24.5 82.5q0 28 -8.5 47t-23 30.5t-34 16.5t-41.5 5q-20 0 -37.5 -3.5t-31.5 -8.5q-16 -5 -30 -12l-28 -110l-75 5v156q29 16 65 28q31 11 72 20t89 9q47 0 86.5 -10.5t67.5 -31.5t43.5 -52.5t15.5 -74.5 q0 -47 -22.5 -95.5t-60.5 -99.5t-87.5 -104.5t-102.5 -108.5l2 -5h178l41 106l72 -11l-11 -200h-466z" />
<glyph unicode="&#xb3;" horiz-adv-x="548" d="M44 1114v165l73 6l26 -106q14 -7 32 -11q15 -4 34 -7t41 -3q23 0 44 7.5t37.5 21.5t26 35.5t9.5 50.5q0 34 -10 58t-27 39t-40.5 22t-51.5 7h-44v84h46q52 0 77.5 28.5t25.5 79.5q0 55 -28.5 75.5t-73.5 20.5q-17 0 -32 -2.5t-27 -5.5q-14 -4 -26 -8l-26 -106l-73 6v164 q25 10 57 18q26 7 62.5 13t78.5 6q109 0 163.5 -42.5t54.5 -119.5q0 -36 -10.5 -62.5t-26.5 -46t-34.5 -32.5t-34.5 -22q24 -8 47 -21.5t41.5 -33t29.5 -45.5t11 -60q0 -54 -19 -94t-52.5 -67t-80 -40t-100.5 -13q-41 0 -76.5 6t-63.5 14q-33 9 -60 21z" />
<glyph unicode="&#xb4;" horiz-adv-x="1052" d="M397 1275v32l203 363l182 -10v-66l-280 -329z" />
<glyph unicode="&#xb5;" horiz-adv-x="1254" d="M50 987l20 98l313 22v-704q0 -92 16.5 -151t47 -93t73.5 -47.5t95 -13.5q57 0 104.5 19.5t82.5 43.5q40 28 73 64v728l-183 34l20 98l343 22v-975l153 -34l-20 -98q-19 -7 -39 -11q-17 -5 -39.5 -8t-45.5 -3q-38 0 -65.5 16.5t-47.5 42.5t-33.5 57.5t-22.5 61.5 q-24 -29 -55 -60.5t-72 -57.5t-93 -43t-118 -17q-45 0 -79.5 8.5t-60.5 22t-44 29t-29 29.5l-10 -6l49 -496l-180 -22v1410z" />
<glyph unicode="&#xb6;" horiz-adv-x="1152" d="M90 908q0 112 33.5 196t93.5 139t142 82.5t179 27.5h514l20 -98l-152 -34v-1093q0 -104 -31 -184t-81.5 -135t-115.5 -83t-133 -28q-64 0 -113 7t-84 16q-40 11 -71 24v112q29 -9 66 -16q31 -6 73.5 -10.5t93.5 -4.5q48 0 86 16t64.5 52.5t41 95t14.5 143.5v1091h-140 v-739h-65q-84 0 -162 24t-139 75t-97.5 131t-36.5 193z" />
<glyph unicode="&#xb7;" horiz-adv-x="584" d="M180 654q0 31 7 59t19.5 49t29 33.5t34.5 12.5q33 0 61 -7t48.5 -19.5t32.5 -29.5t12 -36q0 -30 -7 -58t-19.5 -49t-29 -33.5t-35.5 -12.5q-32 0 -60 7t-48.5 19.5t-32.5 29t-12 35.5z" />
<glyph unicode="&#xb8;" horiz-adv-x="818" d="M200 -317q27 -11 57 -20q26 -8 58 -14t65 -6q20 0 35.5 2t26.5 4q12 3 21 7q3 7 7 17q2 8 4.5 19t2.5 23q0 39 -38.5 64t-122.5 45l-34 55l61 158h132l-49 -135q42 -11 77 -25t60.5 -34.5t40 -49t14.5 -68.5t-15.5 -73.5t-45 -57.5t-72 -37.5t-95.5 -13.5q-40 0 -74 7 t-60 16q-30 11 -56 24v93z" />
<glyph unicode="&#xb9;" horiz-adv-x="446" d="M50 1705l182 57h66v-591l101 -17l-10 -69h-313l-10 69l102 17v487h-113z" />
<glyph unicode="&#xba;" horiz-adv-x="581" d="M40 1031v46q0 73 19 128.5t52.5 93t79.5 57t100 19.5q55 0 101 -13.5t79 -41t51.5 -70.5t18.5 -101v-47q0 -61 -16 -114.5t-48 -93t-79.5 -62t-111.5 -22.5q-124 0 -185 60t-61 161zM165 1048q0 -42 11.5 -72t31 -49t43.5 -28t50 -9q17 0 32 4.5t27 10.5q14 6 26 15 q8 15 15 37q5 19 10 47.5t5 68.5v59q0 47 -12 78.5t-31 50t-43.5 26.5t-48.5 8q-18 0 -34 -5t-27 -10q-14 -7 -25 -15q-9 -16 -15 -40q-6 -20 -10.5 -50t-4.5 -68v-59z" />
<glyph unicode="&#xbb;" horiz-adv-x="1063" d="M170 159v22l167 385l-167 385v22h85l266 -389v-36l-266 -389h-85zM433 115v22l300 419v20l-300 419v22h85l395 -421v-60l-395 -421h-85z" />
<glyph unicode="&#xbc;" horiz-adv-x="1374" d="M90 1296l182 57h66v-591l101 -17l-10 -69h-313l-10 69l102 17v487h-113zM124 0v20l979 1333h105v-20l-979 -1333h-105zM760 224l270 453h127l-265 -431h144v148h130v-148h86l12 -70l-98 -17v-73l96 -17l-10 -69h-322l-10 69l116 17v75h-264z" />
<glyph unicode="&#xbd;" horiz-adv-x="1433" d="M110 1296l182 57h66v-591l101 -17l-10 -69h-313l-10 69l102 17v487h-113zM144 0v20l979 1333h105v-20l-979 -1333h-105zM846 0v82q70 70 130 130.5t104 112.5t68.5 96.5t24.5 82.5q0 28 -8.5 47t-23 30.5t-34 16.5t-41.5 5q-20 0 -37.5 -3.5t-31.5 -8.5q-16 -5 -30 -12 l-28 -110l-75 5v156q29 16 65 28q31 11 72 20t89 9q47 0 86.5 -10.5t67.5 -31.5t43.5 -52.5t15.5 -74.5q0 -47 -22.5 -95.5t-60.5 -99.5t-87.5 -104.5t-102.5 -108.5l2 -5h178l41 106l72 -11l-11 -200h-466z" />
<glyph unicode="&#xbe;" horiz-adv-x="1423" d="M110 717v165l73 6l26 -106q14 -7 32 -11q15 -4 34 -7t41 -3q23 0 44 7.5t37.5 21.5t26 35.5t9.5 50.5q0 34 -10 58t-27 39t-40.5 22t-51.5 7h-44v84h46q52 0 77.5 28.5t25.5 79.5q0 55 -28.5 75.5t-73.5 20.5q-17 0 -32 -2.5t-27 -5.5q-14 -4 -26 -8l-26 -106l-73 6v164 q25 10 57 18q26 7 62.5 13t78.5 6q109 0 163.5 -42.5t54.5 -119.5q0 -36 -10.5 -62.5t-26.5 -46t-34.5 -32.5t-34.5 -22q24 -8 47 -21.5t41.5 -33t29.5 -45.5t11 -60q0 -54 -19 -94t-52.5 -67t-80 -40t-100.5 -13q-41 0 -76.5 6t-63.5 14q-33 9 -60 21zM173 0v20l979 1333 h105v-20l-979 -1333h-105zM809 224l270 453h127l-265 -431h144v148h130v-148h86l12 -70l-98 -17v-73l96 -17l-10 -69h-322l-10 69l116 17v75h-264z" />
<glyph unicode="&#xbf;" horiz-adv-x="979" d="M100 -184q0 52 13 97.5t40 89t69 88.5t100 98l151 138q62 56 90.5 100t28.5 88q0 38 -24 56t-68 18q-29 0 -54 -5t-44 -11q-22 -7 -41 -15v101q22 14 50 25q24 9 57.5 17t75.5 8q45 0 86 -12t72.5 -36t50.5 -60.5t19 -84.5q0 -39 -9 -75t-30 -72.5t-54.5 -76t-82.5 -84.5 l-152 -140q-45 -42 -76.5 -76t-51 -64t-28 -58t-8.5 -58q0 -31 14 -58t44.5 -47.5t79 -32t118.5 -11.5q44 0 77 4.5t56 9.5q26 6 47 14l71 229l112 -17v-277q-46 -24 -106 -42q-51 -16 -123 -28.5t-161 -12.5q-198 0 -303.5 69t-105.5 204zM451 937q0 34 8 64.5t21.5 54 t32.5 37.5t40 14q36 0 67 -8t54 -21.5t36 -32t13 -39.5q0 -35 -8 -66t-21.5 -54.5t-32 -37.5t-39.5 -14q-36 0 -67 8t-54.5 22.5t-36.5 33t-13 39.5z" />
<glyph unicode="&#xc0;" horiz-adv-x="1218" d="M-8 98l108 29l440 1226h149l429 -1226l108 -29l-20 -98h-385l-20 98l128 29l-94 279h-491l-96 -279l128 -29l-20 -98h-344zM304 1708v66l192 10l298 -281v-32l-115 -11zM389 535h402l-194 569h-10z" />
<glyph unicode="&#xc1;" horiz-adv-x="1218" d="M-8 98l108 29l440 1226h149l429 -1226l108 -29l-20 -98h-385l-20 98l128 29l-94 279h-491l-96 -279l128 -29l-20 -98h-344zM389 535h402l-194 569h-10zM472 1471v32l298 281l192 -10v-66l-375 -248z" />
<glyph unicode="&#xc2;" horiz-adv-x="1218" d="M-8 98l108 29l440 1226h149l429 -1226l108 -29l-20 -98h-385l-20 98l128 29l-94 279h-491l-96 -279l128 -29l-20 -98h-344zM281 1470v32l283 292l133 -10l273 -282v-32l-125 -10l-238 192l-231 -192zM389 535h402l-194 569h-10z" />
<glyph unicode="&#xc3;" horiz-adv-x="1218" d="M-8 98l108 29l440 1226h149l429 -1226l108 -29l-20 -98h-385l-20 98l128 29l-94 279h-491l-96 -279l128 -29l-20 -98h-344zM214 1495v25q0 113 58.5 171t161.5 58q54 0 109.5 -20.5t106 -45.5t93.5 -45.5t72 -20.5q38 0 60.5 29.5t22.5 90.5l117 10v-47 q0 -106 -53.5 -167.5t-154.5 -61.5q-49 0 -106.5 20.5t-113 45.5t-102.5 45.5t-75 20.5q-20 0 -36.5 -4t-27.5 -15t-17 -30t-6 -49zM389 535h402l-194 569h-10z" />
<glyph unicode="&#xc4;" horiz-adv-x="1218" d="M-8 98l108 29l440 1226h149l429 -1226l108 -29l-20 -98h-385l-20 98l128 29l-94 279h-491l-96 -279l128 -29l-20 -98h-344zM277 1581q0 25 7 48t19.5 40.5t28.5 27.5t34 10q26 0 49 -7t39.5 -19t26 -28.5t9.5 -35.5q0 -25 -7 -47.5t-19 -40t-28 -27.5t-34 -10 q-26 0 -49 7t-40 19.5t-26.5 28.5t-9.5 34zM389 535h402l-194 569h-10zM737 1581q0 25 7 48t19 40.5t28 27.5t34 10q26 0 49 -7t40 -19t26.5 -28.5t9.5 -35.5q0 -25 -7 -47.5t-19.5 -40t-28.5 -27.5t-34 -10q-26 0 -49 7t-39.5 19.5t-26 28.5t-9.5 34z" />
<glyph unicode="&#xc5;" horiz-adv-x="1218" d="M-8 98l108 29l440 1226h149l429 -1226l108 -29l-20 -98h-385l-20 98l128 29l-94 279h-491l-96 -279l128 -29l-20 -98h-344zM389 535h402l-194 569h-10zM431 1570q0 52 16 92t43 67t63 41t77 14q36 0 68.5 -9t57 -27.5t38.5 -47t14 -66.5q0 -55 -15.5 -95.5t-42.5 -66.5 t-63 -39t-77 -13q-37 0 -69.5 9.5t-57 28t-38.5 46.5t-14 66zM531 1602q0 -48 26.5 -76t62.5 -28q17 0 31.5 2.5t25.5 6.5q12 4 23 10q2 10 4 23q2 11 3.5 26.5t1.5 35.5q0 49 -26.5 77t-62.5 28q-17 0 -31 -3t-25 -7q-13 -4 -24 -9q-3 -7 -5 -18q-2 -10 -3 -26t-1 -42z" />
<glyph unicode="&#xc6;" horiz-adv-x="1782" d="M-12 98l130 31l638 1224h868l24 -300l-103 -22l-83 193h-452v-452h357l34 122l99 -20v-334l-99 -20l-34 123h-357v-514h481l83 193l104 -23l-24 -299h-967l-20 98l153 34v274h-392l-144 -281l108 -27l-20 -98h-364zM494 535h326v634z" />
<glyph unicode="&#xc7;" horiz-adv-x="1176" d="M100 515v89q0 381 154 576t451 195q95 0 192 -15t171 -44l21 -270l-105 -22l-83 195q-38 12 -97 19.5t-126 7.5q-86 0 -163.5 -23t-135.5 -65q-40 -92 -64.5 -220t-24.5 -255v-133q0 -214 117.5 -328.5t315.5 -114.5q94 0 192.5 29.5t176.5 74.5v-106q-93 -60 -206 -94 q-83 -24 -165 -30l-28 -79q42 -11 77 -25t60.5 -34.5t40 -49t14.5 -68.5t-15.5 -73.5t-45 -57.5t-72 -37.5t-95.5 -13.5q-40 0 -74 7t-60 16q-30 11 -56 24v93q27 -11 57 -20q26 -8 58 -14t65 -6q20 0 35.5 2t26.5 4q12 3 21 7q3 7 7 17q2 8 4.5 19t2.5 23q0 39 -38.5 64 t-122.5 45l-34 55l39 102q-223 16 -346 131q-142 134 -142 403z" />
<glyph unicode="&#xc8;" horiz-adv-x="1191" d="M76 98l153 34v1089l-153 34l20 98h937l24 -300l-103 -22l-83 193h-452v-452h357l34 122l99 -20v-334l-99 -20l-34 123h-357v-514h481l83 193l104 -23l-24 -299h-967zM279 1708v66l192 10l298 -281v-32l-115 -11z" />
<glyph unicode="&#xc9;" horiz-adv-x="1191" d="M76 98l153 34v1089l-153 34l20 98h937l24 -300l-103 -22l-83 193h-452v-452h357l34 122l99 -20v-334l-99 -20l-34 123h-357v-514h481l83 193l104 -23l-24 -299h-967zM447 1471v32l298 281l192 -10v-66l-375 -248z" />
<glyph unicode="&#xca;" horiz-adv-x="1191" d="M76 98l153 34v1089l-153 34l20 98h937l24 -300l-103 -22l-83 193h-452v-452h357l34 122l99 -20v-334l-99 -20l-34 123h-357v-514h481l83 193l104 -23l-24 -299h-967zM256 1470v32l283 292l133 -10l273 -282v-32l-125 -10l-238 192l-231 -192z" />
<glyph unicode="&#xcb;" horiz-adv-x="1191" d="M76 98l153 34v1089l-153 34l20 98h937l24 -300l-103 -22l-83 193h-452v-452h357l34 122l99 -20v-334l-99 -20l-34 123h-357v-514h481l83 193l104 -23l-24 -299h-967zM252 1581q0 25 7 48t19.5 40.5t28.5 27.5t34 10q26 0 49 -7t39.5 -19t26 -28.5t9.5 -35.5 q0 -25 -7 -47.5t-19 -40t-28 -27.5t-34 -10q-26 0 -49 7t-40 19.5t-26.5 28.5t-9.5 34zM712 1581q0 25 7 48t19 40.5t28 27.5t34 10q26 0 49 -7t40 -19t26.5 -28.5t9.5 -35.5q0 -25 -7 -47.5t-19.5 -40t-28.5 -27.5t-34 -10q-26 0 -49 7t-39.5 19.5t-26 28.5t-9.5 34z" />
<glyph unicode="&#xcc;" horiz-adv-x="643" d="M9 1708v66l192 10l298 -281v-32l-115 -11zM72 98l153 34v1089l-153 34l20 98h455l20 -98l-152 -34v-1089l152 -34l-20 -98h-455z" />
<glyph unicode="&#xcd;" horiz-adv-x="643" d="M72 98l153 34v1089l-153 34l20 98h455l20 -98l-152 -34v-1089l152 -34l-20 -98h-455zM176 1471v32l298 281l192 -10v-66l-375 -248z" />
<glyph unicode="&#xce;" horiz-adv-x="643" d="M-15 1470v32l283 292l133 -10l273 -282v-32l-125 -10l-238 192l-231 -192zM72 98l153 34v1089l-153 34l20 98h455l20 -98l-152 -34v-1089l152 -34l-20 -98h-455z" />
<glyph unicode="&#xcf;" horiz-adv-x="643" d="M-19 1581q0 25 7 48t19.5 40.5t28.5 27.5t34 10q26 0 49 -7t39.5 -19t26 -28.5t9.5 -35.5q0 -25 -7 -47.5t-19 -40t-28 -27.5t-34 -10q-26 0 -49 7t-40 19.5t-26.5 28.5t-9.5 34zM72 98l153 34v1089l-153 34l20 98h455l20 -98l-152 -34v-1089l152 -34l-20 -98h-455z M441 1581q0 25 7 48t19 40.5t28 27.5t34 10q26 0 49 -7t40 -19t26.5 -28.5t9.5 -35.5q0 -25 -7 -47.5t-19.5 -40t-28.5 -27.5t-34 -10q-26 0 -49 7t-39.5 19.5t-26 28.5t-9.5 34z" />
<glyph unicode="&#xd0;" horiz-adv-x="1362" d="M78 98l153 34v497h-153v129h153v463l-153 34l20 98h540q154 0 268.5 -39.5t190 -115t112.5 -185t37 -248.5v-78q0 -157 -39.5 -284t-114.5 -216.5t-183.5 -138t-247.5 -48.5h-563zM421 129h211q60 0 111 7.5t88 16.5q43 11 79 25q40 52 73 120q27 58 50 139.5t23 184.5 v94q0 118 -28 212t-84.5 160t-142.5 101t-202 35h-178v-466h290v-129h-290v-500z" />
<glyph unicode="&#xd1;" horiz-adv-x="1532" d="M72 98l153 34v1089l-153 34l20 98h420l655 -1217h16v1085l-154 34l20 98h407l20 -98l-152 -34v-1221h-287l-656 1218h-16v-1086l152 -34l-20 -98h-405zM374 1495v25q0 113 58.5 171t161.5 58q54 0 109.5 -20.5t106 -45.5t93.5 -45.5t72 -20.5q38 0 60.5 29.5t22.5 90.5 l117 10v-47q0 -106 -53.5 -167.5t-154.5 -61.5q-49 0 -106.5 20.5t-113 45.5t-102.5 45.5t-75 20.5q-20 0 -36.5 -4t-27.5 -15t-17 -30t-6 -49z" />
<glyph unicode="&#xd2;" horiz-adv-x="1345" d="M102 525v79q0 389 148 580t433 191q278 0 419 -136.5t141 -411.5v-78q0 -377 -144 -574t-436 -197q-279 0 -420 137.5t-141 409.5zM292 570q0 -221 112.5 -342t288.5 -121q88 0 165.5 26.5t126.5 62.5q32 100 50 220t18 234v133q0 236 -104.5 349.5t-295.5 113.5 q-89 0 -168 -27.5t-124 -60.5q-30 -92 -49.5 -206.5t-19.5 -248.5v-133zM354 1708v66l192 10l298 -281v-32l-115 -11z" />
<glyph unicode="&#xd3;" horiz-adv-x="1345" d="M102 525v79q0 389 148 580t433 191q278 0 419 -136.5t141 -411.5v-78q0 -377 -144 -574t-436 -197q-279 0 -420 137.5t-141 409.5zM292 570q0 -221 112.5 -342t288.5 -121q88 0 165.5 26.5t126.5 62.5q32 100 50 220t18 234v133q0 236 -104.5 349.5t-295.5 113.5 q-89 0 -168 -27.5t-124 -60.5q-30 -92 -49.5 -206.5t-19.5 -248.5v-133zM522 1471v32l298 281l192 -10v-66l-375 -248z" />
<glyph unicode="&#xd4;" horiz-adv-x="1345" d="M102 525v79q0 389 148 580t433 191q278 0 419 -136.5t141 -411.5v-78q0 -377 -144 -574t-436 -197q-279 0 -420 137.5t-141 409.5zM292 570q0 -221 112.5 -342t288.5 -121q88 0 165.5 26.5t126.5 62.5q32 100 50 220t18 234v133q0 236 -104.5 349.5t-295.5 113.5 q-89 0 -168 -27.5t-124 -60.5q-30 -92 -49.5 -206.5t-19.5 -248.5v-133zM331 1470v32l283 292l133 -10l273 -282v-32l-125 -10l-238 192l-231 -192z" />
<glyph unicode="&#xd5;" horiz-adv-x="1345" d="M102 525v79q0 389 148 580t433 191q278 0 419 -136.5t141 -411.5v-78q0 -377 -144 -574t-436 -197q-279 0 -420 137.5t-141 409.5zM253 1495v25q0 113 58.5 171t161.5 58q54 0 109.5 -20.5t106 -45.5t93.5 -45.5t72 -20.5q38 0 60.5 29.5t22.5 90.5l117 10v-47 q0 -106 -53.5 -167.5t-154.5 -61.5q-49 0 -106.5 20.5t-113 45.5t-102.5 45.5t-75 20.5q-20 0 -36.5 -4t-27.5 -15t-17 -30t-6 -49zM292 570q0 -221 112.5 -342t288.5 -121q88 0 165.5 26.5t126.5 62.5q32 100 50 220t18 234v133q0 236 -104.5 349.5t-295.5 113.5 q-89 0 -168 -27.5t-124 -60.5q-30 -92 -49.5 -206.5t-19.5 -248.5v-133z" />
<glyph unicode="&#xd6;" horiz-adv-x="1345" d="M102 525v79q0 389 148 580t433 191q278 0 419 -136.5t141 -411.5v-78q0 -377 -144 -574t-436 -197q-279 0 -420 137.5t-141 409.5zM292 570q0 -221 112.5 -342t288.5 -121q88 0 165.5 26.5t126.5 62.5q32 100 50 220t18 234v133q0 236 -104.5 349.5t-295.5 113.5 q-89 0 -168 -27.5t-124 -60.5q-30 -92 -49.5 -206.5t-19.5 -248.5v-133zM327 1581q0 25 7 48t19.5 40.5t28.5 27.5t34 10q26 0 49 -7t39.5 -19t26 -28.5t9.5 -35.5q0 -25 -7 -47.5t-19 -40t-28 -27.5t-34 -10q-26 0 -49 7t-40 19.5t-26.5 28.5t-9.5 34zM787 1581q0 25 7 48 t19 40.5t28 27.5t34 10q26 0 49 -7t40 -19t26.5 -28.5t9.5 -35.5q0 -25 -7 -47.5t-19.5 -40t-28.5 -27.5t-34 -10q-26 0 -49 7t-39.5 19.5t-26 28.5t-9.5 34z" />
<glyph unicode="&#xd7;" horiz-adv-x="1021" d="M160 347l246 246l-246 247l104 104l246 -247l247 247l104 -104l-247 -247l247 -246l-104 -104l-247 246l-246 -246z" />
<glyph unicode="&#xd8;" horiz-adv-x="1345" d="M102 525v79q0 389 148 580t433 191q75 0 140 -10l55 175h140v-20l-60 -191q84 -33 144 -91q141 -136 141 -411v-78q0 -377 -144 -574t-436 -197q-67 0 -126 8l-67 -216h-140v20l71 228q-94 34 -158 97q-141 138 -141 410zM292 570q0 -221 112 -342q23 -25 49 -45 l328 1047q-58 16 -128 16q-89 0 -168 -27.5t-124 -60.5q-30 -92 -49.5 -206.5t-19.5 -248.5v-133zM580 121q53 -14 113 -14q88 0 165.5 26.5t126.5 62.5q32 100 50 220t18 234v133q0 236 -105 349q-18 21 -40 37z" />
<glyph unicode="&#xd9;" horiz-adv-x="1358" d="M16 1255l20 98h456l20 -98l-152 -34v-675q0 -223 94 -331t259 -108q79 0 148 23t110 53q34 62 56 150t22 188v700l-153 34l20 98h406l20 -98l-152 -34v-677q0 -291 -127 -428.5t-390 -137.5q-249 0 -376 124.5t-127 388.5v730zM396 1708v66l192 10l298 -281v-32l-115 -11 z" />
<glyph unicode="&#xda;" horiz-adv-x="1358" d="M16 1255l20 98h456l20 -98l-152 -34v-675q0 -223 94 -331t259 -108q79 0 148 23t110 53q34 62 56 150t22 188v700l-153 34l20 98h406l20 -98l-152 -34v-677q0 -291 -127 -428.5t-390 -137.5q-249 0 -376 124.5t-127 388.5v730zM564 1471v32l298 281l192 -10v-66 l-375 -248z" />
<glyph unicode="&#xdb;" horiz-adv-x="1358" d="M16 1255l20 98h456l20 -98l-152 -34v-675q0 -223 94 -331t259 -108q79 0 148 23t110 53q34 62 56 150t22 188v700l-153 34l20 98h406l20 -98l-152 -34v-677q0 -291 -127 -428.5t-390 -137.5q-249 0 -376 124.5t-127 388.5v730zM373 1470v32l283 292l133 -10l273 -282v-32 l-125 -10l-238 192l-231 -192z" />
<glyph unicode="&#xdc;" horiz-adv-x="1358" d="M16 1255l20 98h456l20 -98l-152 -34v-675q0 -223 94 -331t259 -108q79 0 148 23t110 53q34 62 56 150t22 188v700l-153 34l20 98h406l20 -98l-152 -34v-677q0 -291 -127 -428.5t-390 -137.5q-249 0 -376 124.5t-127 388.5v730zM369 1581q0 25 7 48t19.5 40.5t28.5 27.5 t34 10q26 0 49 -7t39.5 -19t26 -28.5t9.5 -35.5q0 -25 -7 -47.5t-19 -40t-28 -27.5t-34 -10q-26 0 -49 7t-40 19.5t-26.5 28.5t-9.5 34zM829 1581q0 25 7 48t19 40.5t28 27.5t34 10q26 0 49 -7t40 -19t26.5 -28.5t9.5 -35.5q0 -25 -7 -47.5t-19.5 -40t-28.5 -27.5t-34 -10 q-26 0 -49 7t-39.5 19.5t-26 28.5t-9.5 34z" />
<glyph unicode="&#xdd;" horiz-adv-x="1122" d="M-52 1254l20 99h410l20 -99l-132 -28l321 -504h16l304 504l-125 28l20 99h352l20 -99l-111 -28l-395 -650v-444l152 -34l-20 -98h-455l-20 98l153 34v446l-416 648zM453 1471v32l298 281l192 -10v-66l-375 -248z" />
<glyph unicode="&#xde;" horiz-adv-x="1098" d="M72 98l153 34v1089l-153 34l20 98h455l20 -98l-152 -34v-149h168q213 0 325 -78.5t112 -246.5q0 -95 -33.5 -167t-90 -121t-131.5 -74t-159 -25h-191v-228l212 -34l-20 -98h-515zM415 489h150q52 0 94.5 5.5t72.5 13.5q35 8 63 19q8 25 15 54q6 25 11 57.5t5 68.5 q0 52 -15.5 95.5t-50 74.5t-90 48.5t-135.5 17.5h-120v-454z" />
<glyph unicode="&#xdf;" horiz-adv-x="1289" d="M96 987l20 98h143v64q0 95 26 171.5t79 130t134 82.5t191 29q75 0 141.5 -17t116 -55t78.5 -99.5t29 -150.5q0 -72 -17.5 -131t-48.5 -110.5t-74 -98t-94 -91.5q27 -16 56 -35q25 -17 55.5 -38.5t61.5 -47.5q53 -45 92.5 -87.5t66 -87t39.5 -93t13 -106.5 q0 -79 -26 -141.5t-73 -105.5t-111.5 -66t-140.5 -23q-73 0 -130.5 10.5t-98.5 24.5q-48 15 -84 35v231l111 10l46 -168q16 -7 39 -12q20 -5 48 -8t66 -3t67 5t48 12q22 7 37 17q6 14 11 32q4 16 7.5 39.5t3.5 55.5q0 37 -8.5 74t-30.5 76t-59.5 82t-95.5 92 q-36 30 -71.5 55.5t-64.5 44.5q-33 22 -63 40v65q61 54 106.5 105t76 103t45.5 106t15 113q0 118 -55 172.5t-160 54.5q-50 0 -87 -7.5t-62 -16.5q-29 -11 -50 -23q-7 -27 -11 -66q-4 -33 -7 -81.5t-3 -112.5v-1135h-313l-20 98l153 34v821z" />
<glyph unicode="&#xe0;" horiz-adv-x="1150" d="M108 237q0 183 162 276.5t489 93.5v95q0 150 -54.5 217.5t-190.5 67.5q-32 0 -73.5 -4t-76.5 -11l-60 -212l-98 10v283q60 21 148.5 37.5t178.5 16.5q205 0 305.5 -90.5t100.5 -281.5v-603l173 -34l-20 -98l-255 -22l-58 177q-78 -95 -167 -136t-193 -41 q-140 0 -225.5 70t-85.5 189zM247 1594v66l175 10l233 -363v-32l-118 -10zM288 275q0 -83 55 -130t144 -47q75 0 148 37.5t124 89.5v262q-150 0 -266 -19.5t-177 -52.5q-12 -28 -20 -64t-8 -76z" />
<glyph unicode="&#xe1;" horiz-adv-x="1150" d="M108 237q0 183 162 276.5t489 93.5v95q0 150 -54.5 217.5t-190.5 67.5q-32 0 -73.5 -4t-76.5 -11l-60 -212l-98 10v283q60 21 148.5 37.5t178.5 16.5q205 0 305.5 -90.5t100.5 -281.5v-603l173 -34l-20 -98l-255 -22l-58 177q-78 -95 -167 -136t-193 -41 q-140 0 -225.5 70t-85.5 189zM288 275q0 -83 55 -130t144 -47q75 0 148 37.5t124 89.5v262q-150 0 -266 -19.5t-177 -52.5q-12 -28 -20 -64t-8 -76zM470 1275v32l203 363l182 -10v-66l-280 -329z" />
<glyph unicode="&#xe2;" horiz-adv-x="1150" d="M108 237q0 183 162 276.5t489 93.5v95q0 150 -54.5 217.5t-190.5 67.5q-32 0 -73.5 -4t-76.5 -11l-60 -212l-98 10v283q60 21 148.5 37.5t178.5 16.5q205 0 305.5 -90.5t100.5 -281.5v-603l173 -34l-20 -98l-255 -22l-58 177q-78 -95 -167 -136t-193 -41 q-140 0 -225.5 70t-85.5 189zM253 1275v32l233 373l133 -10l233 -363v-32l-125 -10l-193 252l-186 -252zM288 275q0 -83 55 -130t144 -47q75 0 148 37.5t124 89.5v262q-150 0 -266 -19.5t-177 -52.5q-12 -28 -20 -64t-8 -76z" />
<glyph unicode="&#xe3;" horiz-adv-x="1150" d="M108 237q0 183 162 276.5t489 93.5v95q0 150 -54.5 217.5t-190.5 67.5q-32 0 -73.5 -4t-76.5 -11l-60 -212l-98 10v283q60 21 148.5 37.5t178.5 16.5q205 0 305.5 -90.5t100.5 -281.5v-603l173 -34l-20 -98l-255 -22l-58 177q-78 -95 -167 -136t-193 -41 q-140 0 -225.5 70t-85.5 189zM150 1282v25q0 113 58.5 171t161.5 58q54 0 109.5 -20.5t106 -45.5t93.5 -45.5t72 -20.5q38 0 60.5 29.5t22.5 90.5l117 10v-47q0 -106 -53.5 -167.5t-154.5 -61.5q-49 0 -106.5 20.5t-113 45.5t-102.5 45.5t-75 20.5q-20 0 -36.5 -4t-27.5 -15 t-17 -30t-6 -49zM288 275q0 -83 55 -130t144 -47q75 0 148 37.5t124 89.5v262q-150 0 -266 -19.5t-177 -52.5q-12 -28 -20 -64t-8 -76z" />
<glyph unicode="&#xe4;" horiz-adv-x="1150" d="M108 237q0 183 162 276.5t489 93.5v95q0 150 -54.5 217.5t-190.5 67.5q-32 0 -73.5 -4t-76.5 -11l-60 -212l-98 10v283q60 21 148.5 37.5t178.5 16.5q205 0 305.5 -90.5t100.5 -281.5v-603l173 -34l-20 -98l-255 -22l-58 177q-78 -95 -167 -136t-193 -41 q-140 0 -225.5 70t-85.5 189zM232 1384q0 25 7 48t19.5 40.5t28.5 27.5t34 10q26 0 49 -7t39.5 -19.5t26 -29t9.5 -34.5q0 -25 -7 -47.5t-19 -40t-28 -27.5t-34 -10q-26 0 -49 7t-40 19.5t-26.5 28.5t-9.5 34zM288 275q0 -83 55 -130t144 -47q75 0 148 37.5t124 89.5v262 q-150 0 -266 -19.5t-177 -52.5q-12 -28 -20 -64t-8 -76zM632 1384q0 25 7 48t19 40.5t28 27.5t34 10q26 0 49 -7t40 -19.5t26.5 -29t9.5 -34.5q0 -25 -7 -47.5t-19.5 -40t-28.5 -27.5t-34 -10q-26 0 -49 7t-39.5 19.5t-26 28.5t-9.5 34z" />
<glyph unicode="&#xe5;" horiz-adv-x="1150" d="M108 237q0 183 162 276.5t489 93.5v95q0 150 -54.5 217.5t-190.5 67.5q-32 0 -73.5 -4t-76.5 -11l-60 -212l-98 10v283q60 21 148.5 37.5t178.5 16.5q205 0 305.5 -90.5t100.5 -281.5v-603l173 -34l-20 -98l-255 -22l-58 177q-78 -95 -167 -136t-193 -41 q-140 0 -225.5 70t-85.5 189zM288 275q0 -83 55 -130t144 -47q75 0 148 37.5t124 89.5v262q-150 0 -266 -19.5t-177 -52.5q-12 -28 -20 -64t-8 -76zM367 1436q0 59 17 103t45.5 73t66.5 43.5t80 14.5q38 0 72.5 -10t60 -30.5t40.5 -52.5t15 -77q0 -62 -16 -106.5t-44.5 -73 t-66.5 -42t-81 -13.5q-39 0 -73.5 10t-60 31t-40.5 53.5t-15 76.5zM472 1468q0 -30 8 -54.5t21 -41t30 -25.5t35 -9q17 0 33 2.5t27 6.5q13 4 25 10q2 11 4 28q2 14 3.5 35t1.5 48q0 30 -8 54.5t-21 41t-30 25.5t-35 9q-14 0 -27.5 -3t-24.5 -7q-12 -4 -23 -9 q-6 -10 -10 -26q-4 -14 -6.5 -35t-2.5 -50z" />
<glyph unicode="&#xe6;" horiz-adv-x="1621" d="M98 237q0 86 36 154.5t113.5 116.5t199 73.5t292.5 25.5v95q0 58 -7 105t-15 80q-10 39 -21 68q-38 14 -86.5 23t-116.5 9q-28 0 -52.5 -2.5t-44.5 -5.5q-23 -4 -42 -7l-60 -212l-98 10v283q37 15 85 27q40 10 95.5 18.5t122.5 8.5q132 0 222.5 -37t140.5 -122 q60 79 144 119t188 40q105 0 174.5 -29t111.5 -87t59.5 -145t17.5 -203v-120h-638v-76q0 -99 29 -165.5t72.5 -107.5t95 -58.5t96.5 -17.5q59 0 111 10t93 22q47 14 88 33v-96q-43 -26 -98 -45q-47 -17 -111.5 -30.5t-142.5 -13.5q-62 0 -117 11.5t-102 36t-84.5 62 t-62.5 90.5q-17 -25 -48 -59.5t-78 -65.5t-111.5 -53t-149.5 -22q-65 0 -120 17t-95.5 50t-63 81t-22.5 111zM278 275q0 -48 16 -81.5t42.5 -54.5t60.5 -31t70 -10q57 0 107 19.5t88.5 45t64 50t33.5 33.5q-21 73 -21 168v73q-123 0 -205.5 -11t-133.5 -25q-60 -16 -94 -36 q-8 -17 -14 -38q-5 -18 -9.5 -44t-4.5 -58zM922 643h445q0 86 -10.5 150.5t-34 107.5t-62 64.5t-94.5 21.5q-42 0 -76 -9.5t-59 -20.5q-29 -13 -52 -30q-13 -33 -24 -75q-10 -37 -19 -89t-14 -120z" />
<glyph unicode="&#xe7;" horiz-adv-x="972" d="M96 399v93q0 296 126.5 455.5t349.5 159.5q76 0 152.5 -15t152.5 -48l19 -234l-110 -23l-69 179q-34 10 -70 15.5t-78 5.5q-62 0 -121.5 -15t-111.5 -45q-22 -60 -41 -159.5t-19 -215.5v-109q0 -160 93 -252.5t224 -92.5q72 0 145.5 18.5t149.5 54.5v-96 q-69 -43 -159 -70q-60 -18 -123 -24l-28 -79q42 -11 77 -25t60.5 -34.5t40 -49t14.5 -68.5t-15.5 -73.5t-45 -57.5t-72 -37.5t-95.5 -13.5q-40 0 -74 7t-60 16q-30 11 -56 24v93q27 -11 57 -20q26 -8 58 -14t65 -6q20 0 35.5 2t26.5 4q12 3 21 7q3 7 7 17q2 8 4.5 19t2.5 23 q0 39 -38.5 64t-122.5 45l-34 55l39 103q-161 15 -259 104q-118 109 -118 313z" />
<glyph unicode="&#xe8;" horiz-adv-x="1034" d="M96 414v83q0 287 127.5 448.5t347.5 161.5q203 0 293 -103.5t90 -360.5v-120h-678v-76q0 -168 92.5 -258.5t220.5 -90.5q83 0 163 18t149 47v-96q-87 -46 -182.5 -67.5t-189.5 -21.5q-206 0 -319.5 112t-113.5 324zM269 1594v66l175 10l233 -363v-32l-118 -10zM279 643 h485q0 182 -52.5 263t-168.5 81q-59 0 -116 -18t-91 -42q-22 -56 -37.5 -136t-19.5 -148z" />
<glyph unicode="&#xe9;" horiz-adv-x="1034" d="M96 414v83q0 287 127.5 448.5t347.5 161.5q203 0 293 -103.5t90 -360.5v-120h-678v-76q0 -168 92.5 -258.5t220.5 -90.5q83 0 163 18t149 47v-96q-87 -46 -182.5 -67.5t-189.5 -21.5q-206 0 -319.5 112t-113.5 324zM279 643h485q0 182 -52.5 263t-168.5 81 q-59 0 -116 -18t-91 -42q-22 -56 -37.5 -136t-19.5 -148zM492 1275v32l203 363l182 -10v-66l-280 -329z" />
<glyph unicode="&#xea;" horiz-adv-x="1034" d="M96 414v83q0 287 127.5 448.5t347.5 161.5q203 0 293 -103.5t90 -360.5v-120h-678v-76q0 -168 92.5 -258.5t220.5 -90.5q83 0 163 18t149 47v-96q-87 -46 -182.5 -67.5t-189.5 -21.5q-206 0 -319.5 112t-113.5 324zM275 1275v32l233 373l133 -10l233 -363v-32l-125 -10 l-193 252l-186 -252zM279 643h485q0 182 -52.5 263t-168.5 81q-59 0 -116 -18t-91 -42q-22 -56 -37.5 -136t-19.5 -148z" />
<glyph unicode="&#xeb;" horiz-adv-x="1034" d="M96 414v83q0 287 127.5 448.5t347.5 161.5q203 0 293 -103.5t90 -360.5v-120h-678v-76q0 -168 92.5 -258.5t220.5 -90.5q83 0 163 18t149 47v-96q-87 -46 -182.5 -67.5t-189.5 -21.5q-206 0 -319.5 112t-113.5 324zM254 1384q0 25 7 48t19.5 40.5t28.5 27.5t34 10 q26 0 49 -7t39.5 -19.5t26 -29t9.5 -34.5q0 -25 -7 -47.5t-19 -40t-28 -27.5t-34 -10q-26 0 -49 7t-40 19.5t-26.5 28.5t-9.5 34zM279 643h485q0 182 -52.5 263t-168.5 81q-59 0 -116 -18t-91 -42q-22 -56 -37.5 -136t-19.5 -148zM654 1384q0 25 7 48t19 40.5t28 27.5t34 10 q26 0 49 -7t40 -19.5t26.5 -29t9.5 -34.5q0 -25 -7 -47.5t-19.5 -40t-28.5 -27.5t-34 -10q-26 0 -49 7t-39.5 19.5t-26 28.5t-9.5 34z" />
<glyph unicode="&#xec;" horiz-adv-x="660" d="M12 1594v66l175 10l233 -363v-32l-118 -10zM106 98l153 34v821l-153 34l20 98l313 22v-975l153 -34l-20 -98h-446z" />
<glyph unicode="&#xed;" horiz-adv-x="660" d="M106 98l153 34v821l-153 34l20 98l313 22v-975l153 -34l-20 -98h-446zM235 1275v32l203 363l182 -10v-66l-280 -329z" />
<glyph unicode="&#xee;" horiz-adv-x="660" d="M18 1275v32l233 373l133 -10l233 -363v-32l-125 -10l-193 252l-186 -252zM106 98l153 34v821l-153 34l20 98l313 22v-975l153 -34l-20 -98h-446z" />
<glyph unicode="&#xef;" horiz-adv-x="660" d="M-3 1384q0 25 7 48t19.5 40.5t28.5 27.5t34 10q26 0 49 -7t39.5 -19.5t26 -29t9.5 -34.5q0 -25 -7 -47.5t-19 -40t-28 -27.5t-34 -10q-26 0 -49 7t-40 19.5t-26.5 28.5t-9.5 34zM106 98l153 34v821l-153 34l20 98l313 22v-975l153 -34l-20 -98h-446zM397 1384q0 25 7 48 t19 40.5t28 27.5t34 10q26 0 49 -7t40 -19.5t26.5 -29t9.5 -34.5q0 -25 -7 -47.5t-19.5 -40t-28.5 -27.5t-34 -10q-26 0 -49 7t-39.5 19.5t-26 28.5t-9.5 34z" />
<glyph unicode="&#xf0;" d="M96 419v93q0 145 35 256t96.5 186.5t146 114t183.5 38.5q45 0 93 -13t85 -39q-24 62 -62 122t-88 118l-252 -120l-39 84l224 106q-50 48 -106.5 92t-118.5 83l149 22q112 -54 209 -134l235 112l39 -83l-201 -96q103 -104 174 -233.5t100 -278.5q3 -17 6.5 -41.5 t6.5 -50.5t5 -52.5t2 -48.5v-94q0 -123 -29.5 -229.5t-88.5 -185t-147.5 -124t-205.5 -45.5q-113 0 -197.5 31t-141 89t-84.5 139t-28 182zM276 453q0 -94 26 -161.5t69 -110.5t96.5 -63t109.5 -20q42 0 78.5 9.5t63.5 20.5q32 13 59 30q17 34 30 84q11 43 20.5 107t9.5 154 v119q0 108 -27 179t-70.5 112t-97 57.5t-106.5 16.5q-45 0 -82 -9.5t-63 -20.5q-32 -13 -56 -30q-17 -37 -30 -90q-11 -45 -20.5 -111t-9.5 -154v-119z" />
<glyph unicode="&#xf1;" horiz-adv-x="1346" d="M106 98l153 34v821l-153 34l20 98l235 22l58 -178q74 84 167 131t196 47q179 0 264 -93.5t85 -287.5v-594l153 -34l-20 -98h-446l-20 98l153 34v550q0 153 -49.5 229t-178.5 76q-67 0 -140.5 -33t-143.5 -96v-726l153 -34l-20 -98h-446zM307 1282v25q0 113 58.5 171 t161.5 58q54 0 109.5 -20.5t106 -45.5t93.5 -45.5t72 -20.5q38 0 60.5 29.5t22.5 90.5l117 10v-47q0 -106 -53.5 -167.5t-154.5 -61.5q-49 0 -106.5 20.5t-113 45.5t-102.5 45.5t-75 20.5q-20 0 -36.5 -4t-27.5 -15t-17 -30t-6 -49z" />
<glyph unicode="&#xf2;" d="M96 419v93q0 276 126.5 435.5t334.5 159.5q218 0 339.5 -116.5t121.5 -334.5v-94q0 -265 -126 -424.5t-345 -159.5q-218 0 -334.5 116.5t-116.5 324.5zM263 1594v66l175 10l233 -363v-32l-118 -10zM276 453q0 -168 86.5 -261.5t214.5 -93.5q50 0 103 16t98 44 q31 65 45.5 155t14.5 190v119q0 171 -78.5 266.5t-222.5 98.5q-55 0 -110 -17.5t-91 -42.5q-26 -59 -43 -153t-17 -202v-119z" />
<glyph unicode="&#xf3;" d="M96 419v93q0 276 126.5 435.5t334.5 159.5q218 0 339.5 -116.5t121.5 -334.5v-94q0 -265 -126 -424.5t-345 -159.5q-218 0 -334.5 116.5t-116.5 324.5zM276 453q0 -168 86.5 -261.5t214.5 -93.5q50 0 103 16t98 44q31 65 45.5 155t14.5 190v119q0 171 -78.5 266.5 t-222.5 98.5q-55 0 -110 -17.5t-91 -42.5q-26 -59 -43 -153t-17 -202v-119zM486 1275v32l203 363l182 -10v-66l-280 -329z" />
<glyph unicode="&#xf4;" d="M96 419v93q0 276 126.5 435.5t334.5 159.5q218 0 339.5 -116.5t121.5 -334.5v-94q0 -265 -126 -424.5t-345 -159.5q-218 0 -334.5 116.5t-116.5 324.5zM269 1275v32l233 373l133 -10l233 -363v-32l-125 -10l-193 252l-186 -252zM276 453q0 -168 86.5 -261.5t214.5 -93.5 q50 0 103 16t98 44q31 65 45.5 155t14.5 190v119q0 171 -78.5 266.5t-222.5 98.5q-55 0 -110 -17.5t-91 -42.5q-26 -59 -43 -153t-17 -202v-119z" />
<glyph unicode="&#xf5;" d="M96 419v93q0 276 126.5 435.5t334.5 159.5q218 0 339.5 -116.5t121.5 -334.5v-94q0 -265 -126 -424.5t-345 -159.5q-218 0 -334.5 116.5t-116.5 324.5zM165 1282v25q0 113 58.5 171t161.5 58q54 0 109.5 -20.5t106 -45.5t93.5 -45.5t72 -20.5q38 0 60.5 29.5t22.5 90.5 l117 10v-47q0 -106 -53.5 -167.5t-154.5 -61.5q-49 0 -106.5 20.5t-113 45.5t-102.5 45.5t-75 20.5q-20 0 -36.5 -4t-27.5 -15t-17 -30t-6 -49zM276 453q0 -168 86.5 -261.5t214.5 -93.5q50 0 103 16t98 44q31 65 45.5 155t14.5 190v119q0 171 -78.5 266.5t-222.5 98.5 q-55 0 -110 -17.5t-91 -42.5q-26 -59 -43 -153t-17 -202v-119z" />
<glyph unicode="&#xf6;" d="M96 419v93q0 276 126.5 435.5t334.5 159.5q218 0 339.5 -116.5t121.5 -334.5v-94q0 -265 -126 -424.5t-345 -159.5q-218 0 -334.5 116.5t-116.5 324.5zM248 1384q0 25 7 48t19.5 40.5t28.5 27.5t34 10q26 0 49 -7t39.5 -19.5t26 -29t9.5 -34.5q0 -25 -7 -47.5t-19 -40 t-28 -27.5t-34 -10q-26 0 -49 7t-40 19.5t-26.5 28.5t-9.5 34zM276 453q0 -168 86.5 -261.5t214.5 -93.5q50 0 103 16t98 44q31 65 45.5 155t14.5 190v119q0 171 -78.5 266.5t-222.5 98.5q-55 0 -110 -17.5t-91 -42.5q-26 -59 -43 -153t-17 -202v-119zM648 1384q0 25 7 48 t19 40.5t28 27.5t34 10q26 0 49 -7t40 -19.5t26.5 -29t9.5 -34.5q0 -25 -7 -47.5t-19.5 -40t-28.5 -27.5t-34 -10q-26 0 -49 7t-39.5 19.5t-26 28.5t-9.5 34z" />
<glyph unicode="&#xf7;" horiz-adv-x="1173" d="M160 520v147h853v-147h-853zM487 182q0 28 6.5 53t17.5 44t25.5 30t31.5 11q29 0 54 -6.5t43.5 -18t29 -26.5t10.5 -32q0 -27 -6.5 -51.5t-17.5 -43.5t-26 -30t-32 -11q-29 0 -53.5 6.5t-43 17.5t-29 25.5t-10.5 31.5zM487 947q0 28 6.5 53t17.5 44t25.5 30t31.5 11 q29 0 54 -6.5t43.5 -18t29 -26.5t10.5 -32q0 -27 -6.5 -51.5t-17.5 -43.5t-26 -30t-32 -11q-29 0 -53.5 6.5t-43 17.5t-29 25.5t-10.5 31.5z" />
<glyph unicode="&#xf8;" d="M96 419v93q0 276 126.5 435.5t334.5 159.5q52 0 99 -7l66 211h125v-20l-70 -223q68 -29 119 -78q122 -116 122 -334v-94q0 -265 -126 -424.5t-345 -159.5q-58 0 -108 8l-66 -212h-125v20l71 227q-61 28 -107 73q-116 117 -116 325zM276 453q0 -168 86 -262l8 -8l247 794 q-37 9 -80 10q-55 0 -110 -17.5t-91 -42.5q-26 -59 -43 -153t-17 -202v-119zM479 113q45 -15 98 -15q50 0 103 16t98 44q31 65 45.5 155t14.5 190v119q0 171 -79 266q-13 17 -29 30z" />
<glyph unicode="&#xf9;" horiz-adv-x="1262" d="M38 987l20 98l313 22v-704q0 -156 55 -230.5t187 -74.5q72 0 143 34t127 93v728l-183 34l20 98l343 22v-975l153 -34l-20 -98l-235 -22l-58 178q-81 -95 -171.5 -136.5t-199.5 -41.5q-168 0 -254.5 95t-86.5 286v594zM304 1594v66l175 10l233 -363v-32l-118 -10z" />
<glyph unicode="&#xfa;" horiz-adv-x="1262" d="M38 987l20 98l313 22v-704q0 -156 55 -230.5t187 -74.5q72 0 143 34t127 93v728l-183 34l20 98l343 22v-975l153 -34l-20 -98l-235 -22l-58 178q-81 -95 -171.5 -136.5t-199.5 -41.5q-168 0 -254.5 95t-86.5 286v594zM527 1275v32l203 363l182 -10v-66l-280 -329z" />
<glyph unicode="&#xfb;" horiz-adv-x="1262" d="M38 987l20 98l313 22v-704q0 -156 55 -230.5t187 -74.5q72 0 143 34t127 93v728l-183 34l20 98l343 22v-975l153 -34l-20 -98l-235 -22l-58 178q-81 -95 -171.5 -136.5t-199.5 -41.5q-168 0 -254.5 95t-86.5 286v594zM310 1275v32l233 373l133 -10l233 -363v-32l-125 -10 l-193 252l-186 -252z" />
<glyph unicode="&#xfc;" horiz-adv-x="1262" d="M38 987l20 98l313 22v-704q0 -156 55 -230.5t187 -74.5q72 0 143 34t127 93v728l-183 34l20 98l343 22v-975l153 -34l-20 -98l-235 -22l-58 178q-81 -95 -171.5 -136.5t-199.5 -41.5q-168 0 -254.5 95t-86.5 286v594zM289 1384q0 25 7 48t19.5 40.5t28.5 27.5t34 10 q26 0 49 -7t39.5 -19.5t26 -29t9.5 -34.5q0 -25 -7 -47.5t-19 -40t-28 -27.5t-34 -10q-26 0 -49 7t-40 19.5t-26.5 28.5t-9.5 34zM689 1384q0 25 7 48t19 40.5t28 27.5t34 10q26 0 49 -7t40 -19.5t26.5 -29t9.5 -34.5q0 -25 -7 -47.5t-19.5 -40t-28.5 -27.5t-34 -10 q-26 0 -49 7t-39.5 19.5t-26 28.5t-9.5 34z" />
<glyph unicode="&#xfd;" horiz-adv-x="1106" d="M-10 987l20 98h370l20 -98l-125 -19l295 -836h16l296 836l-125 19l20 98h325l20 -98l-97 -19l-357 -966q-90 -249 -177.5 -354t-225.5 -105q-59 0 -119 15t-98 32l36 131q55 -20 129 -35.5t141 -15.5q38 26 74.5 75.5t65.5 129.5l-407 1093zM508 1275v32l203 363l182 -10 v-66l-280 -329z" />
<glyph unicode="&#xfe;" horiz-adv-x="1134" d="M4 -336l153 34v1710l-153 34l20 98l313 22v-610q22 24 52.5 51t71 50.5t91.5 38.5t113 15q84 0 153 -25.5t117.5 -80.5t75.5 -140t27 -205v-94q0 -132 -30.5 -240t-89 -184.5t-144 -118t-194.5 -41.5q-62 0 -122.5 7t-120.5 18v-305l153 -34l-20 -99h-446zM337 125 q20 -5 48 -9.5t59 -8.5t63.5 -6.5t62.5 -2.5q53 0 95.5 9.5t72.5 20.5q35 13 63 30q16 44 28 99q11 47 20 109.5t9 136.5v119q0 104 -20.5 174t-55.5 112.5t-82 60.5t-99 18t-99 -20.5t-84 -44.5q-43 -28 -81 -64v-733z" />
<glyph unicode="&#xff;" horiz-adv-x="1106" d="M-10 987l20 98h370l20 -98l-125 -19l295 -836h16l296 836l-125 19l20 98h325l20 -98l-97 -19l-357 -966q-90 -249 -177.5 -354t-225.5 -105q-59 0 -119 15t-98 32l36 131q55 -20 129 -35.5t141 -15.5q38 26 74.5 75.5t65.5 129.5l-407 1093zM270 1384q0 25 7 48 t19.5 40.5t28.5 27.5t34 10q26 0 49 -7t39.5 -19.5t26 -29t9.5 -34.5q0 -25 -7 -47.5t-19 -40t-28 -27.5t-34 -10q-26 0 -49 7t-40 19.5t-26.5 28.5t-9.5 34zM670 1384q0 25 7 48t19 40.5t28 27.5t34 10q26 0 49 -7t40 -19.5t26.5 -29t9.5 -34.5q0 -25 -7 -47.5t-19.5 -40 t-28.5 -27.5t-34 -10q-26 0 -49 7t-39.5 19.5t-26 28.5t-9.5 34z" />
<glyph unicode="&#x152;" horiz-adv-x="1801" d="M102 525v79q0 188 35.5 332t107.5 241.5t181 147.5t257 50q55 0 104.5 -5.5t94.5 -16.5h761l24 -300l-103 -22l-83 193h-452v-452h357l34 122l99 -20v-334l-99 -20l-34 123h-357v-514h481l83 193l104 -23l-24 -299h-830q-81 -22 -180 -22q-279 0 -420 137.5t-141 409.5z M292 570q0 -120 33 -207.5t88 -144.5t127.5 -84t152.5 -27q42 0 78 5.5t68 14.5v1084q-42 18 -88.5 26.5t-97.5 8.5q-66 0 -120 -13.5t-92 -30.5q-45 -19 -80 -44q-20 -58 -35 -129q-13 -61 -23.5 -144t-10.5 -182v-133z" />
<glyph unicode="&#x153;" horiz-adv-x="1776" d="M96 419v93q0 276 126.5 435.5t334.5 159.5q218 0 339 -117q31 -29 54 -65q7 10 15 20q128 162 348 162q203 0 293 -103.5t90 -360.5v-120h-678v-76q0 -168 92.5 -258.5t220.5 -90.5q83 0 163 18t149 47v-96q-87 -46 -182.5 -67.5t-189.5 -21.5q-206 0 -320 112 q-27 27 -49 60q-5 -6 -10 -13q-126 -159 -345 -159q-218 0 -334.5 116.5t-116.5 324.5zM276 453q0 -168 86.5 -261.5t214.5 -93.5q50 0 103 16t98 44q31 65 45.5 155t14.5 190v8v111q0 171 -78.5 266.5t-222.5 98.5q-55 0 -110 -17.5t-91 -42.5q-26 -59 -43 -153t-17 -202 v-119zM1021 643h485q0 182 -52.5 263t-168.5 81q-59 0 -116 -18t-91 -42q-22 -56 -37.5 -136t-19.5 -148z" />
<glyph unicode="&#x178;" horiz-adv-x="1122" d="M-52 1254l20 99h410l20 -99l-132 -28l321 -504h16l304 504l-125 28l20 99h352l20 -99l-111 -28l-395 -650v-444l152 -34l-20 -98h-455l-20 98l153 34v446l-416 648zM258 1581q0 25 7 48t19.5 40.5t28.5 27.5t34 10q26 0 49 -7t39.5 -19t26 -28.5t9.5 -35.5 q0 -25 -7 -47.5t-19 -40t-28 -27.5t-34 -10q-26 0 -49 7t-40 19.5t-26.5 28.5t-9.5 34zM718 1581q0 25 7 48t19 40.5t28 27.5t34 10q26 0 49 -7t40 -19t26.5 -28.5t9.5 -35.5q0 -25 -7 -47.5t-19.5 -40t-28.5 -27.5t-34 -10q-26 0 -49 7t-39.5 19.5t-26 28.5t-9.5 34z" />
<glyph unicode="&#x2c6;" horiz-adv-x="999" d="M200 1275v32l233 373l133 -10l233 -363v-32l-125 -10l-193 252l-186 -252z" />
<glyph unicode="&#x2dc;" horiz-adv-x="1101" d="M150 1282v25q0 113 58.5 171t161.5 58q54 0 109.5 -20.5t106 -45.5t93.5 -45.5t72 -20.5q38 0 60.5 29.5t22.5 90.5l117 10v-47q0 -106 -53.5 -167.5t-154.5 -61.5q-49 0 -106.5 20.5t-113 45.5t-102.5 45.5t-75 20.5q-20 0 -36.5 -4t-27.5 -15t-17 -30t-6 -49z" />
<glyph unicode="&#x2000;" horiz-adv-x="897" />
<glyph unicode="&#x2001;" horiz-adv-x="1794" />
<glyph unicode="&#x2002;" horiz-adv-x="897" />
<glyph unicode="&#x2003;" horiz-adv-x="1794" />
<glyph unicode="&#x2004;" horiz-adv-x="598" />
<glyph unicode="&#x2005;" horiz-adv-x="448" />
<glyph unicode="&#x2006;" horiz-adv-x="299" />
<glyph unicode="&#x2007;" horiz-adv-x="299" />
<glyph unicode="&#x2008;" horiz-adv-x="224" />
<glyph unicode="&#x2009;" horiz-adv-x="358" />
<glyph unicode="&#x200a;" horiz-adv-x="99" />
<glyph unicode="&#x2010;" horiz-adv-x="803" d="M60 520v147h693v-147h-693z" />
<glyph unicode="&#x2011;" horiz-adv-x="803" d="M60 520v147h693v-147h-693z" />
<glyph unicode="&#x2012;" horiz-adv-x="803" d="M60 520v147h693v-147h-693z" />
<glyph unicode="&#x2013;" horiz-adv-x="1141" d="M70 509l20 136h981l-20 -136h-981z" />
<glyph unicode="&#x2014;" horiz-adv-x="2035" d="M10 509l20 136h1975l-20 -136h-1975z" />
<glyph unicode="&#x2018;" horiz-adv-x="472" d="M60 1190q0 46 7 89t28 88t59.5 92.5t102.5 102.5l62 -73q-79 -66 -109 -116.5t-30 -88.5q0 -18 14.5 -28t36.5 -16q45 -11 73 -34.5t28 -52.5q0 -32 -7.5 -60.5t-20 -50.5t-29.5 -34.5t-36 -12.5q-36 0 -74.5 11t-63.5 37q-8 9 -15.5 21t-13 29t-9 41t-3.5 56z" />
<glyph unicode="&#x2019;" horiz-adv-x="386" d="M48 1404q0 32 7.5 60.5t20 50.5t29.5 34.5t36 12.5q36 0 74.5 -11t63.5 -37q16 -17 28.5 -50t12.5 -97q0 -46 -7 -89t-28 -88t-59.5 -92.5t-102.5 -102.5l-62 73q79 66 109 116.5t30 88.5q0 18 -14.5 28t-36.5 16q-45 11 -73 34.5t-28 52.5z" />
<glyph unicode="&#x201a;" horiz-adv-x="472" d="M120 72q0 32 7.5 60.5t20 50.5t29.5 34.5t36 12.5q36 0 74.5 -11t63.5 -37q16 -17 28.5 -50t12.5 -97q0 -46 -7 -89t-28 -88t-59.5 -92.5t-102.5 -102.5l-62 73q79 66 109 116.5t30 88.5q0 18 -14.5 28t-36.5 16q-45 11 -73 34.5t-28 52.5z" />
<glyph unicode="&#x201c;" horiz-adv-x="822" d="M60 1190q0 46 7 89t28 88t59.5 92.5t102.5 102.5l62 -73q-79 -66 -109 -116.5t-30 -88.5q0 -18 14.5 -28t36.5 -16q45 -11 73 -34.5t28 -52.5q0 -32 -7.5 -60.5t-20 -50.5t-29.5 -34.5t-36 -12.5q-36 0 -74.5 11t-63.5 37q-8 9 -15.5 21t-13 29t-9 41t-3.5 56zM410 1190 q0 46 7 89t28 88t59.5 92.5t102.5 102.5l62 -73q-79 -66 -109 -116.5t-30 -88.5q0 -18 14.5 -28t36.5 -16q45 -11 73 -34.5t28 -52.5q0 -32 -7.5 -60.5t-20 -50.5t-29.5 -34.5t-36 -12.5q-36 0 -74.5 11t-63.5 37q-8 9 -15.5 21t-13 29t-9 41t-3.5 56z" />
<glyph unicode="&#x201d;" horiz-adv-x="736" d="M48 1404q0 32 7.5 60.5t20 50.5t29.5 34.5t36 12.5q36 0 74.5 -11t63.5 -37q16 -17 28.5 -50t12.5 -97q0 -46 -7 -89t-28 -88t-59.5 -92.5t-102.5 -102.5l-62 73q79 66 109 116.5t30 88.5q0 18 -14.5 28t-36.5 16q-45 11 -73 34.5t-28 52.5zM398 1404q0 32 7.5 60.5 t20 50.5t29.5 34.5t36 12.5q36 0 74.5 -11t63.5 -37q16 -17 28.5 -50t12.5 -97q0 -46 -7 -89t-28 -88t-59.5 -92.5t-102.5 -102.5l-62 73q79 66 109 116.5t30 88.5q0 18 -14.5 28t-36.5 16q-45 11 -73 34.5t-28 52.5z" />
<glyph unicode="&#x201e;" horiz-adv-x="823" d="M120 72q0 32 7.5 60.5t20 50.5t29.5 34.5t36 12.5q36 0 74.5 -11t63.5 -37q16 -17 28.5 -50t12.5 -97q0 -46 -7 -89t-28 -88t-59.5 -92.5t-102.5 -102.5l-62 73q79 66 109 116.5t30 88.5q0 18 -14.5 28t-36.5 16q-45 11 -73 34.5t-28 52.5zM471 72q0 32 7.5 60.5t20 50.5 t29.5 34.5t36 12.5q36 0 74.5 -11t63.5 -37q16 -17 28.5 -50t12.5 -97q0 -46 -7 -89t-28 -88t-59.5 -92.5t-102.5 -102.5l-62 73q79 66 109 116.5t30 88.5q0 18 -14.5 28t-36.5 16q-45 11 -73 34.5t-28 52.5z" />
<glyph unicode="&#x2022;" horiz-adv-x="740" d="M140 583q0 59 14 113t37.5 95t55.5 65t68 24q62 0 116 -14t93.5 -38t62.5 -56t23 -69q0 -59 -14 -112t-38 -93.5t-56 -64.5t-68 -24q-62 0 -115.5 14t-93.5 37.5t-62.5 55t-22.5 67.5z" />
<glyph unicode="&#x2026;" horiz-adv-x="1792" d="M140 79q0 34 8 65.5t22 55t32 37.5t39 14q36 0 67 -8t54.5 -22t36.5 -33t13 -40q0 -34 -8 -64.5t-22 -54t-32.5 -37.5t-39.5 -14q-36 0 -67 8t-54 22t-36 32t-13 39zM750 79q0 34 8 65.5t22 55t32 37.5t39 14q36 0 67 -8t54.5 -22t36.5 -33t13 -40q0 -34 -8 -64.5 t-22 -54t-32.5 -37.5t-39.5 -14q-36 0 -67 8t-54 22t-36 32t-13 39zM1360 79q0 34 8 65.5t22 55t32 37.5t39 14q36 0 67 -8t54.5 -22t36.5 -33t13 -40q0 -34 -8 -64.5t-22 -54t-32.5 -37.5t-39.5 -14q-36 0 -67 8t-54 22t-36 32t-13 39z" />
<glyph unicode="&#x202f;" horiz-adv-x="358" />
<glyph unicode="&#x2039;" horiz-adv-x="800" d="M150 536v60l395 421h85v-22l-300 -419v-20l300 -419v-22h-85z" />
<glyph unicode="&#x203a;" horiz-adv-x="800" d="M170 115v22l300 419v20l-300 419v22h85l395 -421v-60l-395 -421h-85z" />
<glyph unicode="&#x205f;" horiz-adv-x="448" />
<glyph unicode="&#x20ac;" horiz-adv-x="1200" d="M20 523l23 100h135q1 26 1.5 51t2.5 49h-162l23 100h149q40 271 188.5 411.5t402.5 140.5q83 0 149.5 -12.5t114.5 -27.5q55 -18 99 -40v-287h-120l-48 217q-27 6 -60 10q-29 4 -70 7.5t-92 3.5q-73 0 -128.5 -13.5t-93.5 -30.5q-45 -19 -77 -44q-17 -40 -33 -91 q-14 -44 -27.5 -105.5t-21.5 -138.5h588l-23 -100h-572v-40v-60h548l-23 -100h-525q4 -114 40 -193.5t94 -129t133 -71.5t156 -22q75 0 141.5 16t117.5 36q59 23 110 52v-106q-55 -36 -124 -64q-60 -24 -141.5 -43.5t-181.5 -19.5q-107 0 -203.5 25.5t-170.5 87.5 t-117.5 165t-43.5 259v8h-158z" />
<glyph unicode="&#x2122;" horiz-adv-x="1861" d="M150 1184l13 169h558l12 -169l-52 -11l-41 96h-137v-521l76 -17l-10 -55h-255l-10 55l77 17v521h-138l-41 -96zM794 731l76 17v533l-76 17l10 55h249l199 -524h5l191 524h253l10 -55l-76 -17v-533l76 -17l-10 -55h-254l-10 55l76 17v518h-5l-220 -590h-96l-230 591h-5 v-519l71 -17l-5 -55h-219z" />
<glyph unicode="&#x25fc;" horiz-adv-x="1085" d="M0 0v1085h1085v-1085h-1085z" />
<glyph unicode="&#xfb01;" horiz-adv-x="1396" d="M96 987l20 98h143v108q0 185 77 277t222 92q46 0 94.5 -11t82.5 -26l-43 -131q-57 19 -115.5 30t-107.5 11q-12 -30 -21 -88.5t-9 -137.5v-124h214l20 -98l-234 -34v-821l213 -34l-20 -98h-506l-20 98l153 34v821zM842 98l153 34v821l-153 34l20 98l313 22v-975l153 -34 l-20 -98h-446zM948 1401q0 56 29.5 97.5t68.5 41.5q57 0 97.5 -29t40.5 -70q0 -56 -29.5 -97t-68.5 -41q-56 0 -97 29t-41 69z" />
<glyph unicode="&#xfb02;" horiz-adv-x="1376" d="M96 987l20 98h143v108q0 185 77 277t222 92q46 0 94.5 -11t82.5 -26l-43 -131q-57 19 -115.5 30t-107.5 11q-12 -30 -21 -88.5t-9 -137.5v-124h214l20 -98l-234 -34v-821l213 -34l-20 -98h-506l-20 98l153 34v821zM825 98l153 34v1276l-153 34l20 98l313 22v-1430 l153 -34l-20 -98h-446z" />
</font>
</defs>
</svg>
