<?xml version="1.0" standalone="no"?>
<!DOCTYPE svg PUBLIC "-//W3C//DTD SVG 1.1//EN" "http://www.w3.org/Graphics/SVG/1.1/DTD/svg11.dtd" >
<svg xmlns="http://www.w3.org/2000/svg">
<metadata></metadata>
<defs>
<font id="fira_mono_otregular" horiz-adv-x="1228" >
<font-face units-per-em="2048" ascent="1638" descent="-410" />
<missing-glyph horiz-adv-x="500" />
<glyph />
<glyph />
<glyph horiz-adv-x="682" />
<glyph unicode="&#xd;" />
<glyph unicode=" " />
<glyph unicode="!" d="M471 119q0 59 40.5 100t100.5 41q61 0 102.5 -41t41.5 -100q0 -60 -41.5 -102t-102.5 -42q-60 0 -100.5 42t-40.5 102zM506 1411h209l-21 -940h-166z" />
<glyph unicode="&#x22;" d="M328 1513h225l-33 -536h-160zM676 1513h225l-33 -536h-159z" />
<glyph unicode="#" d="M104 342v141h177l61 449h-162v143h180l46 336h159l-47 -336h289l45 336h160l-47 -336h159v-143h-178l-59 -449h162v-141h-183l-43 -342h-159l45 342h-287l-45 -342h-160l45 342h-158zM440 483h287l61 449h-288z" />
<glyph unicode="$" d="M135 170l109 121q145 -145 323 -158v551q-189 63 -284 158.5t-95 234.5q0 135 99 236t280 119v307h142v-307q221 -22 378 -164l-110 -115q-118 109 -268 127v-455q87 -29 153 -63.5t124 -85t89 -123t31 -162.5q0 -101 -43.5 -186t-135 -144.5t-218.5 -76.5v-299h-142v292 q-250 15 -432 193zM383 1083q0 -72 39.5 -120t144.5 -91v404q-85 -14 -134.5 -63t-49.5 -130zM709 141q198 41 198 244q0 86 -44.5 145t-153.5 105v-494z" />
<glyph unicode="%" d="M63 1122q0 143 84 228.5t215 85.5t215.5 -85t84.5 -227q0 -140 -84.5 -225.5t-215.5 -85.5t-215 85t-84 224zM74 14l948 1436l117 -72l-951 -1435zM219 1122q0 -192 143 -192q41 0 69.5 15.5t42 44.5t19 60.5t5.5 73.5q0 195 -136 195q-143 0 -143 -197zM565 287 q0 141 84.5 226t216.5 85q131 0 214 -85t83 -226q0 -143 -83 -227.5t-214 -84.5q-133 0 -217 84.5t-84 227.5zM725 287q0 -197 141 -197q142 0 142 197q0 192 -142 192q-141 0 -141 -192z" />
<glyph unicode="&#x26;" d="M106 399q0 159 83 260.5t237 133.5v6q-128 30 -187 110t-59 187q0 141 108 239.5t283 98.5q103 0 186 -33.5t163 -120.5l-111 -100q-54 60 -108.5 87t-127.5 27q-101 0 -154.5 -55t-53.5 -147q0 -94 71 -162t174 -68h566v-143h-179v-555q-149 -189 -430 -189 q-115 0 -205.5 35.5t-145 96t-82.5 135t-28 157.5zM291 408q0 -120 71 -201.5t211 -81.5q170 0 252 102v492h-239q-74 0 -132.5 -28t-93 -74t-52 -99.5t-17.5 -109.5z" />
<glyph unicode="'" d="M502 1513h225l-33 -536h-159z" />
<glyph unicode="(" d="M332 717q0 78 8 151.5t20.5 135t35 125t43 111t55 105t60 96t68.5 93.5t70.5 88t74.5 89q7 9 11 13l121 -82q-64 -80 -102 -132t-87 -127t-77 -140t-54.5 -148t-38.5 -176.5t-12 -201.5q0 -107 12 -200.5t38.5 -176.5t55 -149t76.5 -140.5t87 -127.5t102 -132l-121 -82 q-55 65 -77 91.5t-71 88.5t-70.5 95.5t-60.5 96t-57.5 107.5t-44 111.5t-36.5 127t-20 136t-9 154.5z" />
<glyph unicode=")" d="M330 -209q76 96 121 158.5t99 155t82.5 176t48 196t19.5 240.5q0 108 -11.5 201.5t-38.5 176.5t-55 148.5t-76.5 140t-87 126.5t-101.5 132l121 82q161 -191 225 -286q166 -243 206 -513q15 -99 15 -208q0 -79 -9 -154.5t-20 -136t-36.5 -127t-44 -111.5t-57.5 -107.5 t-60.5 -96t-70.5 -95.5t-71 -88.5t-77 -91.5z" />
<glyph unicode="*" d="M213 1147l55 174l285 -123l-31 313h185l-33 -313l287 123l55 -174l-301 -66l215 -223l-150 -113l-164 267l-153 -271l-154 105l207 235z" />
<glyph unicode="+" d="M229 559v156h297v307h172v-307h301v-156h-301v-305h-172v305h-297z" />
<glyph unicode="," d="M416 -373l98 408q-32 23 -51 61t-19 80q0 71 49 120.5t121 49.5q73 0 122.5 -49.5t49.5 -120.5q0 -76 -45 -174l-163 -375h-162z" />
<glyph unicode="-" d="M252 561v160h725v-160h-725z" />
<glyph unicode="." d="M428 162q0 77 53 130.5t131 53.5q79 0 133 -53.5t54 -130.5q0 -78 -54 -132.5t-133 -54.5q-78 0 -131 54.5t-53 132.5z" />
<glyph unicode="/" d="M102 -145l875 1804l149 -72l-872 -1800z" />
<glyph unicode="0" d="M147 707q0 353 119 541t348 188t348 -188t119 -541q0 -354 -119 -543t-348 -189t-348 189t-119 543zM342 707q0 -582 272 -582q273 0 273 582q0 579 -273 579q-272 0 -272 -579zM481 707q0 56 38 94.5t95 38.5q58 0 97 -38.5t39 -94.5q0 -57 -39 -96.5t-97 -39.5 q-57 0 -95 39.5t-38 96.5z" />
<glyph unicode="1" d="M180 1130l451 281h166v-1259h288v-152h-823v152h346v1052l-338 -205z" />
<glyph unicode="2" d="M154 1219q176 217 424 217q191 0 307 -109t116 -280q0 -178 -141.5 -377.5t-468.5 -511.5h641l-22 -158h-840v150q373 370 505 551.5t132 338.5q0 111 -67 174.5t-173 63.5q-88 0 -152.5 -35t-129.5 -117z" />
<glyph unicode="3" d="M119 166l123 102q58 -69 140 -104t171 -35q142 0 223.5 75t81.5 204q0 262 -287 262h-108l22 145h74q110 0 186 62t76 178q0 109 -73.5 170t-186.5 61q-88 0 -156.5 -31t-140.5 -98l-102 113q175 166 409 166q197 0 318 -103t121 -252q0 -124 -79 -214t-190 -111v-8 q127 -8 220.5 -99t93.5 -243q0 -186 -138 -308.5t-358 -122.5q-128 0 -244.5 48t-195.5 143z" />
<glyph unicode="4" d="M141 338v133l414 965l158 -66l-373 -883h379l18 369h164v-369h178v-149h-178v-338h-182v338h-578z" />
<glyph unicode="5" d="M158 158l127 106q113 -135 288 -135q136 0 214.5 87.5t78.5 236.5q0 154 -69.5 224.5t-188.5 70.5q-98 0 -196 -48h-148v711h744l-23 -149h-541v-416q98 49 220 49q179 0 289 -121t110 -323q0 -205 -136.5 -340.5t-351.5 -135.5q-262 0 -417 183z" />
<glyph unicode="6" d="M150 633q0 237 68.5 419t196.5 283t298 101q146 0 266 -84l-82 -127q-83 61 -186 61q-153 0 -259.5 -145t-113.5 -402q66 87 157.5 134t184.5 47q78 0 148 -28.5t126.5 -83t89.5 -144.5t33 -203q0 -148 -61 -260t-161 -169t-222 -57q-125 0 -220 52.5t-151 144.5t-84 208 t-28 253zM340 580q5 -218 77.5 -336.5t215.5 -118.5q124 0 188 87.5t64 242.5q0 166 -66 240.5t-174 74.5q-85 0 -167.5 -52.5t-137.5 -137.5z" />
<glyph unicode="7" d="M193 1257v154h847v-141l-561 -1290l-176 53l547 1224h-657z" />
<glyph unicode="8" d="M129 375q0 241 285 362q-228 115 -228 344q0 90 40 161t104.5 111.5t137 61.5t146.5 21q81 0 155.5 -21t136.5 -62t99 -110t37 -158q0 -96 -62.5 -179t-182.5 -144q145 -63 224 -160t79 -223q0 -176 -133.5 -290t-356.5 -114q-224 0 -352.5 113.5t-128.5 286.5zM326 377 q0 -119 72.5 -185.5t211.5 -66.5q138 0 215.5 70.5t77.5 181.5q0 27 -4 51t-14 45t-19.5 38t-29 33.5t-33.5 28.5t-43 26t-47 23t-54.5 22.5t-57.5 21t-64 22.5q-211 -99 -211 -311zM371 1079q0 -102 73.5 -163t225.5 -111q96 56 142 122t46 150q0 97 -64.5 156t-179.5 59 q-117 0 -180 -55.5t-63 -157.5z" />
<glyph unicode="9" d="M145 971q0 139 65.5 246.5t171.5 163t232 55.5q219 0 343 -152t124 -397q0 -203 -47 -355t-146.5 -263t-239.5 -185.5t-339 -128.5l-43 141q273 72 433.5 225.5t179.5 364.5l-5 2q-47 -75 -129 -122.5t-192 -47.5q-176 0 -292 126t-116 327zM336 967q0 -148 71 -223.5 t181 -75.5q187 0 297 192q-2 218 -68 322t-207 104q-123 0 -198.5 -81t-75.5 -238z" />
<glyph unicode=":" d="M442 147q0 70 49.5 120t120.5 50q73 0 122.5 -50t49.5 -120q0 -72 -49.5 -122t-122.5 -50q-72 0 -121 50t-49 122zM442 883q0 71 49 120.5t121 49.5q73 0 122.5 -49.5t49.5 -120.5t-49.5 -121.5t-122.5 -50.5q-71 0 -120.5 50.5t-49.5 121.5z" />
<glyph unicode=";" d="M414 -373l98 408q-32 23 -51 61t-19 80q0 71 49 120.5t121 49.5q73 0 122.5 -49.5t49.5 -120.5q0 -76 -45 -174l-164 -375h-161zM442 883q0 71 49 120.5t121 49.5q73 0 122.5 -49.5t49.5 -120.5t-49.5 -121.5t-122.5 -50.5q-71 0 -120.5 50.5t-49.5 121.5z" />
<glyph unicode="&#x3c;" d="M176 551v182l789 488l90 -142l-717 -438l717 -440l-99 -138z" />
<glyph unicode="=" d="M209 360v160h811v-160h-811zM209 754v159h811v-159h-811z" />
<glyph unicode="&#x3e;" d="M176 201l717 440l-717 438l90 142l789 -488v-182l-781 -488z" />
<glyph unicode="?" d="M176 1231q176 205 436 205q94 0 173 -27t130.5 -71.5t80 -102t28.5 -119.5q0 -66 -20.5 -119t-53 -88t-72.5 -65t-79.5 -58.5t-72 -60.5t-53 -79.5t-20.5 -106.5v-68h-186v78q0 68 20 123.5t51.5 93.5t70 70.5t77 60.5t70 56.5t51.5 67t20 83.5q0 83 -65 129.5t-168 46.5 q-76 0 -151 -36.5t-136 -110.5zM424 119q0 59 40.5 100t100.5 41q61 0 102.5 -41t41.5 -100q0 -60 -41.5 -102t-102.5 -42q-60 0 -100.5 42t-40.5 102z" />
<glyph unicode="@" d="M16 1210q260 226 566 226q110 0 199.5 -25t153 -68t111.5 -107t77 -135t47.5 -160t25 -173t6.5 -182q0 -135 -5.5 -237t-18 -192t-35 -151t-56 -106t-80 -65.5t-108.5 -20.5q-60 0 -109 30t-76.5 76t-42 94t-14.5 90h-8q-80 -198 -280 -198q-109 0 -180.5 62.5 t-101.5 164.5t-30 242q0 262 105 396t301 134q148 0 295 -78v-606q0 -149 35.5 -205.5t101.5 -56.5q78 0 104 154q19 111 19 437v32q0 90 -4.5 163.5t-17 147.5t-33 130t-54 106t-78.5 82t-108 50.5t-141 18.5q-250 0 -463 -188zM238 375q0 -105 13.5 -175.5t48.5 -113.5 t93 -43q33 0 60.5 8t48 25.5t34 31t27 40.5t17.5 36.5t14 34.5v522q-59 29 -125 29q-129 0 -180 -94.5t-51 -300.5z" />
<glyph unicode="A" d="M35 0l457 1411h245l457 -1411h-205l-108 354h-543l-109 -354h-194zM385 512h449l-220 723h-8z" />
<glyph unicode="B" d="M188 0v1411h359q80 0 149.5 -10t136 -36t114 -65.5t76 -102t28.5 -142.5q0 -125 -72.5 -201.5t-173.5 -99.5v-9q46 -9 86.5 -23.5t82 -41.5t71 -63.5t48.5 -91.5t19 -122q0 -90 -30.5 -160.5t-81 -115t-121 -74t-144.5 -41.5t-157 -12h-390zM383 158h221q303 0 303 241 q0 75 -22.5 127.5t-65 80.5t-92.5 40t-115 12h-229v-501zM383 815h215q126 0 190 54.5t64 172.5q0 113 -69.5 164t-200.5 51h-199v-442z" />
<glyph unicode="C" d="M113 707q0 173 48.5 313.5t132.5 230t193.5 137.5t235.5 48q132 0 228.5 -35t185.5 -105l-107 -125q-125 105 -295 105q-70 0 -130 -18t-113.5 -60.5t-91 -107t-59.5 -162t-22 -221.5q0 -291 112.5 -429.5t301.5 -138.5q185 0 324 121l100 -127q-170 -158 -432 -158 q-134 0 -246 48t-193.5 139t-127 230.5t-45.5 314.5z" />
<glyph unicode="D" d="M164 0v1411h307q76 0 142 -7.5t135.5 -28.5t125 -54t106 -87.5t84.5 -126t53.5 -171.5t19.5 -223t-20 -225t-54.5 -174.5t-84.5 -128.5t-105 -90.5t-121 -56t-128 -30t-130 -8.5h-330zM358 154h158q54 0 101 10t95.5 33t86.5 65.5t68 102t46.5 148.5t16.5 200 q0 100 -13 180.5t-35 136.5t-55 97.5t-67.5 65.5t-78.5 38.5t-82.5 19t-84.5 4.5h-156v-1101z" />
<glyph unicode="E" d="M229 0v1411h815l-22 -156h-598v-460h520v-156h-520v-485h637v-154h-832z" />
<glyph unicode="F" d="M256 0v1411h842l-23 -156h-624v-481h546v-153h-546v-621h-195z" />
<glyph unicode="G" d="M88 707q0 176 50 317.5t134 230t189 135t221 46.5q136 0 229 -38t183 -120l-115 -119q-126 117 -295 117q-62 0 -117 -18t-105.5 -60t-87 -106t-58 -162.5t-21.5 -222.5q0 -299 90 -435.5t274 -136.5q139 0 259 66v417h-267l-22 158h481v-676q-109 -61 -217.5 -93 t-247.5 -32q-262 0 -409.5 187t-147.5 545z" />
<glyph unicode="H" d="M164 0v1411h194v-590h512v590h195v-1411h-195v662h-512v-662h-194z" />
<glyph unicode="I" d="M205 0v154h311v1103h-311v154h819v-154h-311v-1103h311v-154h-819z" />
<glyph unicode="J" d="M221 -139q271 87 388.5 205t117.5 323v868h-502v154h697v-1030q0 -234 -162 -405t-492 -261z" />
<glyph unicode="K" d="M205 0v1411h194v-1411h-194zM410 754l536 657h221l-534 -645l573 -766h-239z" />
<glyph unicode="L" d="M268 0v1411h195v-1241h641l-23 -170h-813z" />
<glyph unicode="M" d="M59 0l80 1411h258l217 -942h9l206 942h261l79 -1411h-184l-41 723q-6 132 -8 294q-1 69 -1 112q0 57 1 67h-6l-223 -944h-187l-233 944h-8q0 -359 -5 -473l-34 -723h-181z" />
<glyph unicode="N" d="M164 0v1411h260l481 -1200h8q-26 215 -26 512v688h178v-1411h-266l-475 1194h-9q6 -54 16.5 -209t10.5 -297v-688h-178z" />
<glyph unicode="O" d="M90 702q0 218 58 381.5t177.5 258t288.5 94.5q170 0 289 -92t177.5 -255t58.5 -384q0 -218 -58 -380.5t-178 -256t-289 -93.5q-254 0 -389 195.5t-135 531.5zM293 702q0 -284 78 -425.5t243 -141.5q168 0 245 142t77 428t-77 428.5t-245 142.5t-244.5 -143.5 t-76.5 -430.5z" />
<glyph unicode="P" d="M225 0v1411h369q263 0 407 -109t144 -327q0 -121 -40 -210t-114.5 -142.5t-172 -79t-220.5 -25.5h-178v-518h-195zM420 672h194q75 0 130 13.5t101 46t69.5 93t23.5 148.5q0 150 -86.5 218.5t-237.5 68.5h-194v-588z" />
<glyph unicode="Q" d="M90 702q0 218 58 381.5t177.5 258t288.5 94.5q170 0 289 -92t177.5 -255t58.5 -384q0 -485 -275 -644l2 -6q138 -28 222 -104.5t135 -229.5l-197 -75q-46 116 -96.5 185t-133.5 109t-202 40q-242 0 -373 194t-131 528zM293 702q0 -284 78 -425.5t243 -141.5 q168 0 245 142t77 428t-77 428.5t-245 142.5t-244.5 -143.5t-76.5 -430.5z" />
<glyph unicode="R" d="M199 0v1411h370q265 0 401 -100.5t136 -298.5q0 -151 -93.5 -250.5t-244.5 -138.5l414 -623h-232l-377 598h-180v-598h-194zM393 748h197q153 0 231 62.5t78 201.5q0 131 -75.5 189.5t-235.5 58.5h-195v-512z" />
<glyph unicode="S" d="M82 158l113 125q158 -148 391 -148q134 0 225.5 65.5t91.5 186.5q0 100 -63 156.5t-240 111.5q-221 68 -330.5 162t-109.5 250q0 163 130.5 266t334.5 103q271 0 456 -164l-110 -123q-144 127 -338 127q-120 0 -197.5 -52t-77.5 -149q0 -88 71 -141.5t263 -112.5 q77 -24 130.5 -45.5t111 -57.5t92.5 -78t57.5 -105t22.5 -142q0 -189 -137 -303.5t-377 -114.5q-321 0 -510 183z" />
<glyph unicode="T" d="M78 1247v164h1073l-21 -164h-421v-1247h-195v1247h-436z" />
<glyph unicode="U" d="M141 459v952h195v-944q0 -163 70 -245.5t206 -82.5q137 0 208 82.5t71 245.5v944h196v-952q0 -217 -128.5 -350.5t-346.5 -133.5q-220 0 -345.5 132.5t-125.5 351.5z" />
<glyph unicode="V" d="M45 1411h209l360 -1188h9l364 1188h197l-465 -1411h-209z" />
<glyph unicode="W" d="M8 1411h195l106 -1188h8l187 1024h225l152 -1018h8l153 1182h179l-209 -1411h-246l-152 1030h-8l-174 -1030h-256z" />
<glyph unicode="X" d="M55 0l434 752l-397 659h221l291 -524h8l303 524h209l-403 -649l450 -762h-221l-342 618h-8l-336 -618h-209z" />
<glyph unicode="Y" d="M41 1411h215l360 -690h7l362 690h203l-475 -868v-543h-197v541z" />
<glyph unicode="Z" d="M139 0v156l738 1091h-664v164h874v-158l-731 -1087h731l-22 -166h-926z" />
<glyph unicode="[" d="M371 -238v1909h485v-158h-307v-1595h307v-156h-485z" />
<glyph unicode="\" d="M102 1587l150 72l874 -1804l-151 -68z" />
<glyph unicode="]" d="M373 -82h307v1595h-307v158h485v-1909h-485v156z" />
<glyph unicode="^" d="M143 1079l387 641h168l387 -641h-200l-273 477l-270 -477h-199z" />
<glyph unicode="_" d="M-6 -211h1241v-162h-1241v162z" />
<glyph unicode="`" d="M371 1479l96 159l389 -231l-57 -100z" />
<glyph unicode="a" d="M127 309q0 167 134 257.5t380 90.5h158v84q0 110 -64.5 159.5t-187.5 49.5q-126 0 -283 -55l-49 139q190 70 360 70q202 0 307 -92.5t105 -259.5v-508q0 -63 20 -93.5t66 -44.5l-45 -131q-160 20 -205 152q-55 -74 -146.5 -113t-193.5 -39q-162 0 -259 91.5t-97 242.5z M334 317q0 -200 201 -200q77 0 148 39.5t116 109.5v266h-148q-317 0 -317 -215z" />
<glyph unicode="b" d="M199 0v1513l188 23v-594q124 162 305 162q106 0 184 -39.5t126 -114.5t71 -177t23 -232q0 -166 -48 -292.5t-146 -200t-234 -73.5q-185 0 -291 136l-12 -111h-166zM387 260q42 -64 103.5 -99.5t132.5 -35.5q131 0 200.5 103.5t69.5 312.5q0 413 -246 413 q-149 0 -260 -168v-526z" />
<glyph unicode="c" d="M174 535q0 164 59.5 292t177.5 202.5t277 74.5q223 0 367 -121l-92 -127q-123 92 -275 92q-142 0 -226.5 -104.5t-84.5 -308.5q0 -203 84 -301.5t227 -98.5q154 0 277 92l90 -129q-72 -59 -172 -91t-197 -32q-241 0 -376.5 151.5t-135.5 408.5z" />
<glyph unicode="d" d="M133 539q0 163 50 290.5t147 201t227 73.5q175 0 285 -125v557l188 -23v-1513h-166l-16 139q-115 -164 -305 -164q-204 0 -307 151t-103 413zM336 539q0 -414 250 -414q148 0 256 166v530q-90 133 -236 133q-131 0 -200.5 -103.5t-69.5 -311.5z" />
<glyph unicode="e" d="M154 539q0 163 57.5 291t165 201t248.5 73q212 0 332 -142.5t120 -390.5q0 -46 -4 -96h-723q12 -173 95.5 -259.5t213.5 -86.5q166 0 287 100l86 -125q-76 -61 -175 -95t-202 -34q-237 0 -369 153.5t-132 410.5zM350 614h545q-3 166 -73 253t-197 87q-115 0 -190 -86.5 t-85 -253.5z" />
<glyph unicode="f" d="M168 852v145h254v209q0 149 112 239.5t287 90.5q164 0 301 -59l-59 -138q-102 45 -232 45q-221 0 -221 -176v-211h365l-21 -145h-344v-852h-188v852h-254z" />
<glyph unicode="g" d="M102 -170q0 96 41 158l146 -39q-19 -44 -19 -84q0 -154 308 -154q311 0 311 166q0 70 -57 105t-201 41q-210 8 -314 59t-104 160q0 108 109 182q-82 48 -127 125.5t-45 175.5q0 163 118 271t312 108q163 0 277.5 25t217.5 71l55 -170q-102 -33 -303 -33v-6 q80 -37 126 -107.5t46 -160.5q0 -160 -113 -262.5t-302 -102.5q-79 0 -150 19q-45 -38 -45 -84q0 -36 19 -56t78 -33t169 -16q424 -12 424 -301q0 -82 -39 -145t-108.5 -101.5t-158.5 -57.5t-195 -19q-244 0 -360 71t-116 195zM342 725q0 -107 64.5 -174.5t173.5 -67.5 t171 66t62 178q0 116 -60 179t-173 63q-110 0 -174 -68.5t-64 -175.5z" />
<glyph unicode="h" d="M199 0v1511l188 21v-590q64 76 155 119t187 43q153 0 228 -82.5t75 -237.5v-784h-188v772q0 96 -42.5 140t-135.5 44q-81 0 -156 -51.5t-123 -122.5v-782h-188z" />
<glyph unicode="i" d="M240 0v145h329v789h-319v145h508v-934h301v-145h-819zM532 1464q0 55 37 91t95 36t95.5 -36.5t37.5 -90.5q0 -56 -37.5 -92.5t-95.5 -36.5t-95 36.5t-37 92.5z" />
<glyph unicode="j" d="M184 -291q70 26 121 49.5t107.5 59.5t91.5 76t58.5 97t23.5 124v819h-350v145h538v-952q0 -113 -40 -204.5t-115 -158.5t-166.5 -114.5t-210.5 -85.5zM528 1464q0 55 36.5 91t94.5 36t96 -36.5t38 -90.5q0 -56 -38 -92.5t-96 -36.5t-94.5 36.5t-36.5 92.5z" />
<glyph unicode="k" d="M199 0v1513l188 23v-1536h-188zM406 590l454 489h236l-461 -485l514 -594h-242z" />
<glyph unicode="l" d="M96 1368v145h518v-1239q0 -143 174 -143q87 0 179 37l49 -135q-41 -23 -115 -40.5t-147 -17.5q-151 0 -239.5 84t-88.5 232v1077h-330z" />
<glyph unicode="m" d="M98 0v1079h146l12 -123q50 71 104.5 109.5t128.5 38.5q155 0 193 -141q48 68 104.5 104.5t133.5 36.5q45 0 79.5 -13t65.5 -44.5t48 -93t17 -150.5v-803h-172v774q0 47 -1 69.5t-4.5 49.5t-12 37.5t-23.5 18t-38 7.5q-102 0 -181 -122v-834h-168v774q0 46 -1 69.5 t-5 49.5t-13 37t-24 18.5t-38 7.5q-100 0 -179 -122v-834h-172z" />
<glyph unicode="n" d="M199 0v1079h161l15 -147q65 81 160.5 126.5t193.5 45.5q153 0 228 -82.5t75 -237.5v-784h-188v662q0 69 -3.5 112.5t-13.5 81.5t-30 58t-52 31t-79 11q-81 0 -156 -51.5t-123 -122.5v-782h-188z" />
<glyph unicode="o" d="M143 539q0 257 124 411t349 154q226 0 347.5 -151t121.5 -412q0 -257 -123.5 -411.5t-347.5 -154.5q-226 0 -348.5 151.5t-122.5 412.5zM344 539q0 -210 67 -311t203 -101t203.5 101.5t67.5 312.5q0 411 -269 411q-136 0 -204 -101.5t-68 -311.5z" />
<glyph unicode="p" d="M199 -436v1515h161l15 -147q60 83 142.5 127.5t176.5 44.5q391 0 391 -563q0 -256 -106.5 -411t-308.5 -155q-180 0 -283 123v-512zM387 260q86 -131 238 -131q130 0 195 101t65 311q0 211 -58.5 312t-179.5 101q-149 0 -260 -168v-526z" />
<glyph unicode="q" d="M143 539q0 165 47 291.5t141.5 200t225.5 73.5q186 0 297 -139l14 114h162v-1515l-188 22v545q-115 -156 -301 -156q-398 0 -398 564zM344 539q0 -410 240 -410q153 0 258 162v530q-42 63 -103.5 98t-134.5 35q-260 0 -260 -415z" />
<glyph unicode="r" d="M188 0v145h248v789h-248v145h412l23 -207q45 111 127 171.5t180 60.5q57 0 143 -17l-35 -186q-72 19 -131 19q-97 0 -175 -84t-107 -203v-488h301v-145h-738z" />
<glyph unicode="s" d="M125 123l104 119q64 -53 152 -84t182 -31q120 0 189 44.5t69 119.5q0 55 -18 86.5t-73 58.5t-167 56q-87 23 -146.5 46.5t-110 59.5t-75 87t-24.5 120q0 136 114.5 217.5t303.5 81.5q215 0 374 -115l-84 -127q-129 92 -286 92q-121 0 -174.5 -35t-53.5 -102 q0 -65 56.5 -100.5t220.5 -81.5q69 -19 116.5 -36.5t94 -44t74 -59.5t44.5 -81t17 -109q0 -85 -38.5 -150.5t-104.5 -103.5t-146 -57t-172 -19q-268 0 -438 148z" />
<glyph unicode="t" d="M178 936v143h246v244l188 23v-267h371l-22 -143h-349v-625q0 -92 47.5 -136t153.5 -44q117 0 205 53l72 -129q-57 -37 -137.5 -58.5t-159.5 -21.5q-175 0 -272 91.5t-97 242.5v627h-246z" />
<glyph unicode="u" d="M199 295v784h188v-762q0 -103 42 -148.5t132 -45.5q82 0 159 47.5t122 118.5v790h188v-1079h-162l-14 143q-62 -80 -154 -124t-190 -44q-154 0 -232.5 83.5t-78.5 236.5z" />
<glyph unicode="v" d="M117 1079h200l297 -905h7l297 905h194l-389 -1079h-219z" />
<glyph unicode="w" d="M33 1079h188l131 -936h8l158 799h211l148 -795h8l131 932h180l-184 -1079h-256l-133 764h-9l-139 -764h-250z" />
<glyph unicode="x" d="M106 0l396 569l-348 510h221l237 -389h9l239 389h213l-346 -501l395 -578h-227l-283 451h-8l-285 -451h-213z" />
<glyph unicode="y" d="M119 1079h200l295 -927h9l292 927h195l-377 -1085q-25 -72 -53.5 -129.5t-70.5 -111t-93.5 -91t-122 -64t-155.5 -34.5l-27 147q108 18 175.5 56.5t102.5 91t66 141.5h-63z" />
<glyph unicode="z" d="M203 0v141l592 779h-545v159h770v-143l-588 -778h594l-22 -158h-801z" />
<glyph unicode="{" d="M299 641v152q205 0 205 213v380q0 93 31 158.5t90 101t132 51t171 15.5v-145q-119 0 -182.5 -36.5t-63.5 -123.5v-408q0 -128 -55 -194t-160 -84v-8q106 -18 160.5 -83t54.5 -196v-407q0 -46 17.5 -77.5t51 -49.5t76.5 -25.5t101 -7.5v-146q-98 0 -171 15.5t-132 51 t-90 101t-31 158.5v379q0 215 -205 215z" />
<glyph unicode="|" d="M528 -209v1862h170v-1862h-170z" />
<glyph unicode="}" d="M301 -133q58 0 101 7.5t76.5 25.5t51 49.5t17.5 77.5v407q0 131 54.5 196t160.5 83v8q-105 18 -160 84t-55 194v408q0 87 -63.5 123.5t-182.5 36.5v145q98 0 171 -15.5t132 -51t90 -101t31 -158.5v-380q0 -213 205 -213v-152q-205 0 -205 -215v-379q0 -93 -31 -158.5 t-90 -101t-132 -51t-171 -15.5v146z" />
<glyph unicode="~" d="M84 559q22 44 42 77t51 71t64.5 62.5t80 41t98.5 16.5q57 0 107 -21t85.5 -51t67.5 -60t66.5 -51t68.5 -21q108 0 201 172l129 -66q-22 -43 -42 -76.5t-51.5 -70.5t-65 -61.5t-79.5 -41t-98 -16.5q-53 0 -101.5 21t-84.5 51.5t-69 60.5t-69 51t-71 21q-61 0 -108.5 -45 t-92.5 -127z" />
<glyph unicode="&#xa0;" />
<glyph unicode="&#xa1;" d="M471 881q0 60 40.5 101.5t100.5 41.5t102 -41.5t42 -101.5q0 -59 -42 -100.5t-102 -41.5t-100.5 41.5t-40.5 100.5zM506 -406l26 934h160l29 -934h-215z" />
<glyph unicode="&#xa2;" d="M211 535q0 228 102.5 378t294.5 179v309h160v-307q137 -16 250 -107l-92 -123q-63 47 -117.5 65.5t-116.5 18.5q-133 0 -205.5 -103t-72.5 -310q0 -400 278 -400q62 0 117 20t119 70l90 -131q-104 -88 -250 -108v-301h-162v303q-192 26 -293.5 169.5t-101.5 377.5z" />
<glyph unicode="&#xa3;" d="M145 0v150q40 12 69 28t47 37t29 41t15.5 50.5t6 53.5t1.5 62v250h-166v125h166v256q0 168 107 275.5t291 107.5q241 0 372 -181l-125 -94q-51 63 -108 91t-131 28q-106 0 -161.5 -61.5t-55.5 -180.5v-241h418v-125h-418v-244q0 -94 -25 -160.5t-90 -101.5v-8h678 l-23 -158h-897z" />
<glyph unicode="&#xa4;" d="M70 264l180 180q-72 112 -72 256q0 141 70 252l-178 183l114 114l181 -182q111 68 251 68q145 0 248 -68l180 180l115 -114l-176 -179q74 -112 74 -254q0 -140 -76 -258l178 -176l-115 -114l-182 178q-104 -66 -246 -66q-144 0 -251 66l-181 -180zM360 700 q0 -136 65.5 -211t190.5 -75t189.5 74.5t64.5 211.5q0 136 -65 211.5t-189 75.5t-190 -76t-66 -211z" />
<glyph unicode="&#xa5;" d="M74 1411h211l331 -641h9l331 641h199l-393 -702h239v-125h-288v-172h288v-125h-288v-287h-197v287h-285v125h285v172h-285v125h234z" />
<glyph unicode="&#xa6;" d="M528 -209v729h170v-729h-170zM528 924v729h170v-729h-170z" />
<glyph unicode="&#xa7;" d="M211 653q0 79 46.5 145t119.5 111q-121 91 -121 224q0 137 112.5 220t280.5 83q193 0 348 -111l-86 -125q-66 44 -127.5 65t-142.5 21q-86 0 -138 -38t-52 -101q0 -68 48.5 -106.5t202.5 -90.5q169 -56 241.5 -125.5t72.5 -187.5q0 -80 -45.5 -146.5t-118.5 -111.5 q121 -90 121 -223q0 -138 -111.5 -219.5t-290.5 -81.5q-208 0 -356 112l86 125q127 -88 277 -88q88 0 144 38t56 101q0 68 -49 106t-203 89q-170 57 -242.5 126.5t-72.5 188.5zM395 678q0 -81 56 -118t272 -114q5 -2 8.5 -3.5t7.5 -2.5q95 82 95 172q0 78 -58 115t-279 118 q-5 2 -8 3q-94 -79 -94 -170z" />
<glyph unicode="&#xa8;" d="M281 1456q0 50 33.5 83.5t84.5 33.5q49 0 83 -33.5t34 -83.5t-34 -83.5t-83 -33.5q-51 0 -84.5 33.5t-33.5 83.5zM711 1456q0 50 33.5 83.5t82.5 33.5q51 0 85 -33.5t34 -83.5t-34 -83.5t-85 -33.5q-49 0 -82.5 33.5t-33.5 83.5z" />
<glyph unicode="&#xa9;" d="M55 889q0 180 65 324.5t194 231.5t302 87q130 0 236 -50.5t176 -137.5t108 -204t38 -251q0 -179 -64.5 -323t-193 -231t-300.5 -87q-173 0 -302 87t-194 231t-65 323zM176 889q0 -112 27.5 -208t80.5 -169t138.5 -114.5t193.5 -41.5t192.5 41.5t138 114.5t81 169 t27.5 208q0 113 -27.5 209.5t-81 170t-138 115t-192.5 41.5q-144 0 -245 -73t-148 -192t-47 -271zM291 891q0 183 96 286t238 103q75 0 128.5 -19.5t110.5 -62.5l-76 -100q-73 59 -155 59q-84 0 -135.5 -65.5t-51.5 -200.5q0 -129 50.5 -194.5t136.5 -65.5q97 0 172 69 l69 -102q-107 -96 -247 -96q-152 0 -244 102t-92 287z" />
<glyph unicode="&#xaa;" d="M205 901q0 136 117 209.5t327 73.5h119v57q0 82 -50 119t-149 37q-110 0 -247 -49l-50 127q164 61 322 61q173 0 259.5 -75.5t86.5 -213.5v-397q0 -44 16.5 -67.5t51.5 -34.5l-41 -119q-133 15 -176 121q-50 -58 -123 -89.5t-152 -31.5q-140 0 -225.5 74.5t-85.5 197.5z M215 0v162h809v-162h-809zM391 909q0 -74 44 -112.5t124 -38.5q60 0 115.5 29.5t93.5 82.5v193h-113q-264 0 -264 -154z" />
<glyph unicode="&#xab;" d="M162 532v134l358 430l113 -72l-273 -424l273 -424l-113 -72zM592 532v134l360 430l113 -72l-272 -424l272 -424l-113 -72z" />
<glyph unicode="&#xac;" d="M229 561v158h770v-451h-170v293h-600z" />
<glyph unicode="&#xad;" d="M293 561v160h643v-160h-643z" />
<glyph unicode="&#xae;" d="M90 1006q0 143 70 264t190.5 191.5t263.5 70.5t263.5 -70.5t190 -191.5t69.5 -264q0 -218 -152.5 -370.5t-370.5 -152.5q-143 0 -263.5 69.5t-190.5 190t-70 263.5zM203 1006q0 -178 117.5 -300t293.5 -122t293 122t117 300q0 179 -117.5 302.5t-292.5 123.5 q-116 0 -210.5 -57t-147.5 -154.5t-53 -214.5zM410 725v578h174q254 0 254 -175q0 -62 -37 -102.5t-99 -58.5l175 -242h-140l-151 221h-58v-221h-118zM528 1038h64q123 0 123 90q0 82 -127 82h-60v-172z" />
<glyph unicode="&#xaf;" d="M334 1397v141h559v-141h-559z" />
<glyph unicode="&#xb0;" d="M135 1214q0 98 49 173t124.5 112t162.5 37q137 0 236.5 -88t99.5 -236t-99.5 -235.5t-236.5 -87.5q-136 0 -236 88t-100 237zM293 1214q0 -94 52 -145t126 -51q75 0 126.5 50.5t51.5 143.5t-51.5 144t-126.5 51q-74 0 -126 -50t-52 -143z" />
<glyph unicode="&#xb1;" d="M229 0v160h770v-160h-770zM229 561v156h297v307h176v-307h297v-156h-297v-254h-176v254h-297z" />
<glyph unicode="&#xb2;" d="M313 1300q126 144 305 144q129 0 202 -60t73 -157q0 -94 -72 -161t-268 -163h360l-18 -129h-569v113q259 156 330 212.5t71 119.5q0 45 -31 70.5t-86 25.5q-109 0 -188 -96z" />
<glyph unicode="&#xb3;" d="M299 881l98 82q92 -80 217 -80q150 0 150 98q0 51 -34.5 73.5t-106.5 22.5h-97l17 92h71q125 0 125 76q0 80 -121 80q-110 0 -210 -76l-84 88q129 107 307 107q124 0 196 -48.5t72 -127.5q0 -108 -131 -131v-7q78 -11 119 -48.5t41 -112.5q0 -94 -84.5 -150.5 t-233.5 -56.5q-195 0 -311 119z" />
<glyph unicode="&#xb4;" d="M371 1407l389 229l96 -157l-428 -172z" />
<glyph unicode="&#xb5;" d="M176 -436v1515h189v-606q0 -71 3 -117t13 -91.5t28.5 -71t50.5 -41t79 -15.5q161 0 272 158v784h188v-731q0 -162 54 -348l-176 -25q-15 27 -29 79t-19 93q-47 -78 -124.5 -125t-157.5 -47q-136 0 -199 86l-8 -2q22 -104 22 -174v-299z" />
<glyph unicode="&#xb6;" d="M82 995q0 182 136 299t384 117h543v-1825l-170 -22v1696h-223v-1674l-170 -22v1022q-240 3 -370 117t-130 292z" />
<glyph unicode="&#xb7;" d="M428 692q0 77 53 131t131 54q79 0 133 -54t54 -131q0 -78 -54 -132t-133 -54q-78 0 -131 54t-53 132z" />
<glyph unicode="&#xb8;" d="M377 -442l57 104q64 -33 137 -33q121 0 121 82q0 51 -43.5 68.5t-134.5 17.5l18 236h125v-148q96 -9 144.5 -57.5t48.5 -116.5q0 -97 -73.5 -151t-182.5 -54q-128 0 -217 52z" />
<glyph unicode="&#xb9;" d="M403 1260l297 172h125v-658h-153v483l-193 -104z" />
<glyph unicode="&#xba;" d="M193 1083q0 201 115.5 327t305.5 126q193 0 306.5 -123.5t113.5 -329.5q0 -203 -114.5 -328.5t-305.5 -125.5q-193 0 -307 124t-114 330zM211 0v162h809v-162h-809zM377 1083q0 -158 62.5 -236.5t174.5 -78.5t174 78t62 237q0 157 -62 235.5t-174 78.5t-174.5 -78.5 t-62.5 -235.5z" />
<glyph unicode="&#xbb;" d="M162 176l272 424l-272 424l112 72l359 -430v-134l-359 -428zM592 176l272 424l-272 424l113 72l360 -430v-134l-360 -428z" />
<glyph unicode="&#xbc;" d="M8 489l1096 525l63 -115l-1093 -524zM53 1260l297 172h125v-658h-153v483l-193 -104zM553 115v102l274 461l134 -53l-232 -385h191l14 174h141v-174h111v-125h-111v-115h-155v115h-367z" />
<glyph unicode="&#xbd;" d="M-2 489l1096 525l63 -115l-1094 -524zM43 1260l297 172h125v-658h-154v483l-192 -104zM610 526q126 144 305 144q129 0 202 -60t73 -157q0 -94 -72 -161t-268 -163h360l-18 -129h-569v113q260 157 330.5 212.5t70.5 118.5q0 45 -31 71t-86 26q-109 0 -188 -97z" />
<glyph unicode="&#xbe;" d="M20 489l1096 525l64 -115l-1094 -524zM20 881l99 82q92 -80 217 -80q149 0 149 98q0 51 -34.5 73.5t-106.5 22.5h-96l16 92h72q125 0 125 76q0 80 -121 80q-111 0 -211 -76l-84 88q129 107 307 107q124 0 196.5 -48.5t72.5 -127.5q0 -108 -132 -131v-7q78 -11 119 -48.5 t41 -112.5q0 -94 -84 -150.5t-233 -56.5q-196 0 -312 119zM567 115v102l275 461l133 -53l-232 -385h191l14 174h142v-174h110v-125h-110v-115h-156v115h-367z" />
<glyph unicode="&#xbf;" d="M205 -117q0 66 20.5 119t53 88t72 65.5t79 59t72 60.5t53 79.5t20.5 106.5v67h187v-77q0 -68 -20 -123.5t-51.5 -93.5t-70.5 -70.5t-77.5 -60.5t-70 -56.5t-51.5 -67t-20 -83.5q0 -83 65.5 -130t168.5 -47q75 0 150.5 37t136.5 111l131 -98q-176 -205 -437 -205 q-124 0 -219.5 46t-143.5 118t-48 155zM520 881q0 60 41 101.5t101 41.5t101.5 -41.5t41.5 -101.5q0 -59 -41.5 -100.5t-101.5 -41.5t-101 41.5t-41 100.5z" />
<glyph unicode="&#xc0;" d="M35 0l457 1411h245l457 -1411h-205l-108 354h-543l-109 -354h-194zM365 1714l98 158l385 -225l-55 -101zM385 512h449l-220 723h-8z" />
<glyph unicode="&#xc1;" d="M35 0l457 1411h245l457 -1411h-205l-108 354h-543l-109 -354h-194zM373 1651l387 223l96 -158l-426 -166zM385 512h449l-220 723h-8z" />
<glyph unicode="&#xc2;" d="M35 0l457 1411h245l457 -1411h-205l-108 354h-543l-109 -354h-194zM272 1647l279 227h125l276 -227l-80 -93l-260 166l-258 -166zM385 512h449l-220 723h-8z" />
<glyph unicode="&#xc3;" d="M35 0l457 1411h245l457 -1411h-205l-108 354h-543l-109 -354h-194zM274 1642q78 183 232 183q42 0 78 -15.5t57 -34t45.5 -34t44.5 -15.5q32 0 55 21t50 68l116 -52q-81 -180 -231 -180q-40 0 -76 15.5t-57.5 33.5t-46.5 33.5t-45 15.5q-33 0 -55 -21t-50 -69zM385 512 h449l-220 723h-8z" />
<glyph unicode="&#xc4;" d="M35 0l457 1411h245l457 -1411h-205l-108 354h-543l-109 -354h-194zM281 1692q0 49 33 81.5t83 32.5q51 0 85 -32.5t34 -81.5q0 -51 -34 -84t-85 -33q-50 0 -83 33t-33 84zM385 512h449l-220 723h-8zM709 1692q0 49 33.5 81.5t84.5 32.5q50 0 84.5 -32.5t34.5 -81.5 q0 -50 -34.5 -83.5t-84.5 -33.5q-51 0 -84.5 33t-33.5 84z" />
<glyph unicode="&#xc5;" d="M35 0l457 1411h245l457 -1411h-205l-108 354h-543l-109 -354h-194zM379 1731q0 91 66 153t167 62t167.5 -62.5t66.5 -152.5q0 -92 -66 -155t-168 -63q-101 0 -167 63t-66 155zM385 512h449l-220 723h-8zM502 1731q0 -54 29.5 -85.5t80.5 -31.5q50 0 79.5 31.5t29.5 85.5 q0 53 -29.5 83.5t-79.5 30.5q-51 0 -80.5 -30t-29.5 -84z" />
<glyph unicode="&#xc6;" d="M-25 0l408 1411h776l-22 -154h-471l100 -464h375v-154h-346l102 -485h346v-154h-500l-71 354h-404l-96 -354h-197zM313 512h326l-141 727h-11z" />
<glyph unicode="&#xc7;" d="M113 707q0 173 48.5 313.5t132.5 230t193.5 137.5t235.5 48q132 0 228.5 -35t185.5 -105l-107 -125q-125 105 -295 105q-70 0 -130 -18t-113.5 -60.5t-91 -107t-59.5 -162t-22 -221.5q0 -291 112.5 -429.5t301.5 -138.5q185 0 324 121l100 -127q-162 -150 -407 -158v-90 q96 -9 144 -57.5t48 -116.5q0 -97 -73.5 -151t-182.5 -54q-128 0 -217 52l57 104q64 -33 136 -33q122 0 122 82q0 51 -43.5 68.5t-134.5 17.5l15 187q-232 35 -370 222.5t-138 500.5z" />
<glyph unicode="&#xc8;" d="M229 0v1411h815l-22 -156h-598v-460h520v-156h-520v-485h637v-154h-832zM393 1714l99 158l385 -225l-56 -101z" />
<glyph unicode="&#xc9;" d="M229 0v1411h815l-22 -156h-598v-460h520v-156h-520v-485h637v-154h-832zM416 1647l387 223l96 -158l-426 -166z" />
<glyph unicode="&#xca;" d="M229 0v1411h815l-22 -156h-598v-460h520v-156h-520v-485h637v-154h-832zM295 1647l278 227h125l277 -227l-80 -93l-260 166l-258 -166z" />
<glyph unicode="&#xcb;" d="M229 0v1411h815l-22 -156h-598v-460h520v-156h-520v-485h637v-154h-832zM301 1692q0 49 33.5 81.5t83.5 32.5q51 0 85 -32.5t34 -81.5q0 -51 -34 -84t-85 -33q-50 0 -83.5 33t-33.5 84zM729 1692q0 49 34 81.5t85 32.5q50 0 84.5 -32.5t34.5 -81.5q0 -50 -34.5 -83.5 t-84.5 -33.5q-51 0 -85 33t-34 84z" />
<glyph unicode="&#xcc;" d="M205 0v154h311v1103h-311v154h819v-154h-311v-1103h311v-154h-819zM373 1714l98 158l385 -225l-55 -101z" />
<glyph unicode="&#xcd;" d="M205 0v154h311v1103h-311v154h819v-154h-311v-1103h311v-154h-819zM373 1647l387 223l96 -158l-426 -166z" />
<glyph unicode="&#xce;" d="M205 0v154h311v1103h-311v154h819v-154h-311v-1103h311v-154h-819zM274 1647l279 227h125l276 -227l-80 -93l-260 166l-258 -166z" />
<glyph unicode="&#xcf;" d="M205 0v154h311v1103h-311v154h819v-154h-311v-1103h311v-154h-819zM283 1692q0 49 33 81.5t83 32.5q51 0 85 -32.5t34 -81.5q0 -51 -34 -84t-85 -33q-50 0 -83 33t-33 84zM711 1692q0 49 33.5 81.5t84.5 32.5q50 0 84.5 -32.5t34.5 -81.5q0 -50 -34.5 -83.5t-84.5 -33.5 q-51 0 -84.5 33t-33.5 84z" />
<glyph unicode="&#xd0;" d="M29 651v144h147v616h307q76 0 142 -7.5t135.5 -28.5t125 -54t106 -87.5t84.5 -126t53.5 -171.5t19.5 -223t-20 -225t-54.5 -174.5t-84.5 -128.5t-105 -90.5t-121 -56t-128 -30t-130 -8.5h-330v651h-147zM371 154h157q54 0 101 10t95.5 33t86.5 65.5t68 102t46.5 148.5 t16.5 200q0 100 -13 180.5t-35 136.5t-55 97.5t-67.5 65.5t-78.5 38.5t-82.5 19t-84.5 4.5h-155v-460h352v-144h-352v-497z" />
<glyph unicode="&#xd1;" d="M164 0v1411h260l481 -1200h8q-26 215 -26 512v688h178v-1411h-266l-475 1194h-9q6 -54 16.5 -209t10.5 -297v-688h-178zM274 1642q78 183 232 183q42 0 78 -15.5t57 -34t45.5 -34t44.5 -15.5q32 0 55 21t50 68l116 -52q-81 -180 -231 -180q-40 0 -76 15.5t-57.5 33.5 t-46.5 33.5t-45 15.5q-33 0 -55 -21t-50 -69z" />
<glyph unicode="&#xd2;" d="M90 702q0 218 58 381.5t177.5 258t288.5 94.5q170 0 289 -92t177.5 -255t58.5 -384q0 -218 -58 -380.5t-178 -256t-289 -93.5q-254 0 -389 195.5t-135 531.5zM293 702q0 -284 78 -425.5t243 -141.5q168 0 245 142t77 428t-77 428.5t-245 142.5t-244.5 -143.5 t-76.5 -430.5zM367 1714l98 158l385 -225l-55 -101z" />
<glyph unicode="&#xd3;" d="M90 702q0 218 58 381.5t177.5 258t288.5 94.5q170 0 289 -92t177.5 -255t58.5 -384q0 -218 -58 -380.5t-178 -256t-289 -93.5q-254 0 -389 195.5t-135 531.5zM293 702q0 -284 78 -425.5t243 -141.5q168 0 245 142t77 428t-77 428.5t-245 142.5t-244.5 -143.5 t-76.5 -430.5zM377 1647l387 223l96 -158l-426 -166z" />
<glyph unicode="&#xd4;" d="M90 702q0 218 58 381.5t177.5 258t288.5 94.5q170 0 289 -92t177.5 -255t58.5 -384q0 -218 -58 -380.5t-178 -256t-289 -93.5q-254 0 -389 195.5t-135 531.5zM274 1647l279 227h125l276 -227l-80 -93l-260 166l-258 -166zM293 702q0 -284 78 -425.5t243 -141.5 q168 0 245 142t77 428t-77 428.5t-245 142.5t-244.5 -143.5t-76.5 -430.5z" />
<glyph unicode="&#xd5;" d="M90 702q0 218 58 381.5t177.5 258t288.5 94.5q170 0 289 -92t177.5 -255t58.5 -384q0 -218 -58 -380.5t-178 -256t-289 -93.5q-254 0 -389 195.5t-135 531.5zM276 1642q78 183 232 183q42 0 78 -15.5t57 -34t45.5 -34t44.5 -15.5q32 0 55 21t50 68l116 -52 q-81 -180 -231 -180q-40 0 -76 15.5t-57.5 33.5t-46.5 33.5t-45 15.5q-33 0 -55 -21t-50 -69zM293 702q0 -284 78 -425.5t243 -141.5q168 0 245 142t77 428t-77 428.5t-245 142.5t-244.5 -143.5t-76.5 -430.5z" />
<glyph unicode="&#xd6;" d="M90 702q0 218 58 381.5t177.5 258t288.5 94.5q170 0 289 -92t177.5 -255t58.5 -384q0 -218 -58 -380.5t-178 -256t-289 -93.5q-254 0 -389 195.5t-135 531.5zM283 1692q0 49 33 81.5t83 32.5q51 0 85 -32.5t34 -81.5q0 -51 -34 -84t-85 -33q-50 0 -83 33t-33 84zM293 702 q0 -284 78 -425.5t243 -141.5q168 0 245 142t77 428t-77 428.5t-245 142.5t-244.5 -143.5t-76.5 -430.5zM711 1692q0 49 33.5 81.5t84.5 32.5q50 0 84.5 -32.5t34.5 -81.5q0 -50 -34.5 -83.5t-84.5 -33.5q-51 0 -84.5 33t-33.5 84z" />
<glyph unicode="&#xd7;" d="M258 367l242 241l-242 242l115 117l241 -244l242 244l115 -117l-242 -242l242 -241l-115 -115l-242 242l-241 -242z" />
<glyph unicode="&#xd8;" d="M90 702q0 218 58 381.5t177.5 258t288.5 94.5q59 0 129 -17l76 258l162 -43l-88 -282q121 -87 183.5 -254t62.5 -393q0 -218 -58 -380.5t-178 -256t-289 -93.5q-54 0 -127 15l-77 -258l-162 43l88 282q-122 85 -184 251t-62 394zM293 702q0 -189 26.5 -308.5t86.5 -182.5 l305 1053q-43 12 -97 12q-168 0 -244.5 -143.5t-76.5 -430.5zM518 145q48 -10 96 -10q168 0 245 142t77 428q0 193 -26 312.5t-87 182.5z" />
<glyph unicode="&#xd9;" d="M141 459v952h195v-944q0 -163 70 -245.5t206 -82.5q137 0 208 82.5t71 245.5v944h196v-952q0 -217 -128.5 -350.5t-346.5 -133.5q-220 0 -345.5 132.5t-125.5 351.5zM350 1714l99 158l385 -225l-56 -101z" />
<glyph unicode="&#xda;" d="M141 459v952h195v-944q0 -163 70 -245.5t206 -82.5q137 0 208 82.5t71 245.5v944h196v-952q0 -217 -128.5 -350.5t-346.5 -133.5q-220 0 -345.5 132.5t-125.5 351.5zM391 1647l387 223l96 -158l-425 -166z" />
<glyph unicode="&#xdb;" d="M141 459v952h195v-944q0 -163 70 -245.5t206 -82.5q137 0 208 82.5t71 245.5v944h196v-952q0 -217 -128.5 -350.5t-346.5 -133.5q-220 0 -345.5 132.5t-125.5 351.5zM274 1647l279 227h125l276 -227l-80 -93l-260 166l-258 -166z" />
<glyph unicode="&#xdc;" d="M141 459v952h195v-944q0 -163 70 -245.5t206 -82.5q137 0 208 82.5t71 245.5v944h196v-952q0 -217 -128.5 -350.5t-346.5 -133.5q-220 0 -345.5 132.5t-125.5 351.5zM281 1692q0 49 33 81.5t83 32.5q51 0 85 -32.5t34 -81.5q0 -51 -34 -84t-85 -33q-50 0 -83 33t-33 84z M709 1692q0 49 33.5 81.5t84.5 32.5q50 0 84.5 -32.5t34.5 -81.5q0 -50 -34.5 -83.5t-84.5 -33.5q-51 0 -84.5 33t-33.5 84z" />
<glyph unicode="&#xdd;" d="M41 1411h215l360 -690h7l362 690h203l-475 -868v-543h-197v541zM393 1647l387 223l97 -158l-426 -166z" />
<glyph unicode="&#xde;" d="M209 0v1411h194v-237h193q264 0 405.5 -111.5t141.5 -335.5q0 -121 -39.5 -211.5t-113 -146t-171 -82.5t-219.5 -27h-197v-260h-194zM403 414h215q153 0 236.5 69.5t83.5 239.5q0 154 -85 226.5t-237 72.5h-213v-608z" />
<glyph unicode="&#xdf;" d="M188 0v1092q0 216 109.5 330t308.5 114q162 0 262.5 -83t100.5 -214q0 -55 -23.5 -100.5t-57 -76.5t-67 -58t-57 -58.5t-23.5 -66.5t22.5 -66.5t58 -57t79 -52.5t87 -60.5t79 -73t58 -98.5t22.5 -129q0 -172 -110.5 -269.5t-274.5 -97.5q-152 0 -264 70l73 129 q79 -47 172 -47q100 0 155.5 52.5t55.5 154.5q0 52 -22 95.5t-56.5 74t-77 58.5t-84.5 56.5t-76.5 60t-56.5 76.5t-22 99q0 46 17 84.5t42.5 64t55 52t55 48.5t42.5 53.5t17 66.5q0 66 -44.5 116t-139.5 50q-113 0 -170 -67.5t-57 -217.5v-1104h-189z" />
<glyph unicode="&#xe0;" d="M127 309q0 167 134 257.5t380 90.5h158v84q0 110 -64.5 159.5t-187.5 49.5q-126 0 -283 -55l-49 139q190 70 360 70q202 0 307 -92.5t105 -259.5v-508q0 -63 20 -93.5t66 -44.5l-45 -131q-160 20 -205 152q-55 -74 -146.5 -113t-193.5 -39q-162 0 -259 91.5t-97 242.5z M334 317q0 -200 201 -200q77 0 148 39.5t116 109.5v266h-148q-317 0 -317 -215zM365 1464l96 158l385 -246l-60 -102z" />
<glyph unicode="&#xe1;" d="M127 309q0 167 134 257.5t380 90.5h158v84q0 110 -64.5 159.5t-187.5 49.5q-126 0 -283 -55l-49 139q190 70 360 70q202 0 307 -92.5t105 -259.5v-508q0 -63 20 -93.5t66 -44.5l-45 -131q-160 20 -205 152q-55 -74 -146.5 -113t-193.5 -39q-162 0 -259 91.5t-97 242.5z M334 317q0 -200 201 -200q77 0 148 39.5t116 109.5v266h-148q-317 0 -317 -215zM365 1376l385 244l96 -158l-420 -188z" />
<glyph unicode="&#xe2;" d="M127 309q0 167 134 257.5t380 90.5h158v84q0 110 -64.5 159.5t-187.5 49.5q-126 0 -283 -55l-49 139q190 70 360 70q202 0 307 -92.5t105 -259.5v-508q0 -63 20 -93.5t66 -44.5l-45 -131q-160 20 -205 152q-55 -74 -146.5 -113t-193.5 -39q-162 0 -259 91.5t-97 242.5z M258 1374l279 248h125l276 -248l-82 -90l-256 186l-256 -186zM334 317q0 -200 201 -200q77 0 148 39.5t116 109.5v266h-148q-317 0 -317 -215z" />
<glyph unicode="&#xe3;" d="M127 309q0 167 134 257.5t380 90.5h158v84q0 110 -64.5 159.5t-187.5 49.5q-126 0 -283 -55l-49 139q190 70 360 70q202 0 307 -92.5t105 -259.5v-508q0 -63 20 -93.5t66 -44.5l-45 -131q-160 20 -205 152q-55 -74 -146.5 -113t-193.5 -39q-162 0 -259 91.5t-97 242.5z M262 1393q34 80 92 130t140 50q42 0 78 -15.5t57 -33.5t45.5 -33.5t44.5 -15.5q32 0 54.5 21.5t49.5 68.5l117 -52q-78 -182 -231 -182q-40 0 -76.5 15.5t-58 34t-46.5 34t-45 15.5q-31 0 -53.5 -21.5t-50.5 -69.5zM334 317q0 -200 201 -200q77 0 148 39.5t116 109.5v266 h-148q-317 0 -317 -215z" />
<glyph unicode="&#xe4;" d="M127 309q0 167 134 257.5t380 90.5h158v84q0 110 -64.5 159.5t-187.5 49.5q-126 0 -283 -55l-49 139q190 70 360 70q202 0 307 -92.5t105 -259.5v-508q0 -63 20 -93.5t66 -44.5l-45 -131q-160 20 -205 152q-55 -74 -146.5 -113t-193.5 -39q-162 0 -259 91.5t-97 242.5z M274 1440q0 51 34 83.5t85 32.5q50 0 83.5 -32.5t33.5 -83.5q0 -49 -33.5 -82t-83.5 -33q-51 0 -85 33t-34 82zM334 317q0 -200 201 -200q77 0 148 39.5t116 109.5v266h-148q-317 0 -317 -215zM705 1440q0 51 33 83.5t83 32.5q51 0 85 -32.5t34 -83.5q0 -49 -34 -82t-85 -33 q-50 0 -83 33t-33 82z" />
<glyph unicode="&#xe5;" d="M127 309q0 167 134 257.5t380 90.5h158v84q0 110 -64.5 159.5t-187.5 49.5q-126 0 -283 -55l-49 139q190 70 360 70q202 0 307 -92.5t105 -259.5v-508q0 -63 20 -93.5t66 -44.5l-45 -131q-160 20 -205 152q-55 -74 -146.5 -113t-193.5 -39q-162 0 -259 91.5t-97 242.5z M334 317q0 -200 201 -200q77 0 148 39.5t116 109.5v266h-148q-317 0 -317 -215zM373 1479q0 92 65.5 154.5t167.5 62.5t168 -62.5t66 -154.5q0 -90 -66.5 -152.5t-167.5 -62.5t-167 62t-66 153zM498 1479q0 -54 29 -84.5t79 -30.5q51 0 80 30.5t29 84.5t-29 84t-80 30 q-50 0 -79 -30t-29 -84z" />
<glyph unicode="&#xe6;" d="M-12 309q0 170 111 259t325 89h92v84q0 213 -186 213q-52 0 -97 -12t-114 -43l-49 135q150 70 278 70q115 0 181.5 -45.5t101.5 -130.5q30 83 96.5 129.5t161.5 46.5q180 0 266 -138t86 -395q0 -42 -4 -96h-545q14 -181 68.5 -264.5t159.5 -83.5q55 0 99.5 19t100.5 61 l84 -123q-135 -109 -289 -109q-201 0 -307 183q-71 -98 -140 -140.5t-169 -42.5q-142 0 -226.5 91.5t-84.5 242.5zM182 319q0 -98 39 -150t107 -52q63 0 111 45t104 145q-27 99 -27 225h-82q-136 0 -194 -55t-58 -158zM692 614h373q-3 175 -43.5 257.5t-138.5 82.5 q-91 0 -135 -77t-56 -263z" />
<glyph unicode="&#xe7;" d="M174 535q0 164 59.5 292t177.5 202.5t277 74.5q223 0 367 -121l-92 -127q-123 92 -275 92q-142 0 -226.5 -104.5t-84.5 -308.5q0 -203 84 -301.5t227 -98.5q154 0 277 92l90 -129q-68 -55 -158 -85.5t-182 -35.5v-92q96 -9 144 -57.5t48 -116.5q0 -97 -73.5 -151 t-182.5 -54q-128 0 -217 52l58 104q64 -33 137 -33q121 0 121 82q0 51 -43.5 68.5t-135.5 17.5l15 187q-196 30 -304 176.5t-108 374.5z" />
<glyph unicode="&#xe8;" d="M154 539q0 163 57.5 291t165 201t248.5 73q212 0 332 -142.5t120 -390.5q0 -46 -4 -96h-723q12 -173 95.5 -259.5t213.5 -86.5q166 0 287 100l86 -125q-76 -61 -175 -95t-202 -34q-237 0 -369 153.5t-132 410.5zM350 614h545q-3 166 -73 253t-197 87q-115 0 -190 -86.5 t-85 -253.5zM385 1464l96 158l385 -246l-59 -102z" />
<glyph unicode="&#xe9;" d="M154 539q0 163 57.5 291t165 201t248.5 73q212 0 332 -142.5t120 -390.5q0 -46 -4 -96h-723q12 -173 95.5 -259.5t213.5 -86.5q166 0 287 100l86 -125q-76 -61 -175 -95t-202 -34q-237 0 -369 153.5t-132 410.5zM350 614h545q-3 166 -73 253t-197 87q-115 0 -190 -86.5 t-85 -253.5zM385 1376l385 244l96 -158l-420 -188z" />
<glyph unicode="&#xea;" d="M154 539q0 163 57.5 291t165 201t248.5 73q212 0 332 -142.5t120 -390.5q0 -46 -4 -96h-723q12 -173 95.5 -259.5t213.5 -86.5q166 0 287 100l86 -125q-76 -61 -175 -95t-202 -34q-237 0 -369 153.5t-132 410.5zM287 1374l278 248h125l277 -248l-82 -90l-256 186 l-256 -186zM350 614h545q-3 166 -73 253t-197 87q-115 0 -190 -86.5t-85 -253.5z" />
<glyph unicode="&#xeb;" d="M154 539q0 163 57.5 291t165 201t248.5 73q212 0 332 -142.5t120 -390.5q0 -46 -4 -96h-723q12 -173 95.5 -259.5t213.5 -86.5q166 0 287 100l86 -125q-76 -61 -175 -95t-202 -34q-237 0 -369 153.5t-132 410.5zM293 1440q0 51 34 83.5t85 32.5q50 0 83 -32.5t33 -83.5 q0 -49 -33 -82t-83 -33q-51 0 -85 33t-34 82zM350 614h545q-3 166 -73 253t-197 87q-115 0 -190 -86.5t-85 -253.5zM723 1440q0 51 33.5 83.5t83.5 32.5q51 0 84.5 -32.5t33.5 -83.5q0 -50 -33.5 -82.5t-84.5 -32.5q-50 0 -83.5 33t-33.5 82z" />
<glyph unicode="&#xec;" d="M240 0v145h329v789h-319v145h508v-934h301v-145h-819zM328 1464l96 158l385 -246l-59 -102z" />
<glyph unicode="&#xed;" d="M240 0v145h329v789h-319v145h508v-934h301v-145h-819zM377 1376l385 244l96 -158l-420 -188z" />
<glyph unicode="&#xee;" d="M240 0v145h329v789h-319v145h508v-934h301v-145h-819zM274 1374l279 248h125l276 -248l-82 -90l-256 186l-256 -186z" />
<glyph unicode="&#xef;" d="M240 0v145h329v789h-319v145h508v-934h301v-145h-819zM281 1440q0 51 33.5 83.5t84.5 32.5q50 0 83.5 -32.5t33.5 -83.5q0 -49 -33.5 -82t-83.5 -33q-51 0 -84.5 32.5t-33.5 82.5zM711 1440q0 51 33 83.5t83 32.5q51 0 85 -32.5t34 -83.5q0 -49 -34 -82t-85 -33 q-50 0 -83 33t-33 82z" />
<glyph unicode="&#xf0;" d="M131 481q0 111 35.5 206.5t94.5 160t137.5 101t164.5 36.5q98 0 180 -34t129 -91l7 2q-24 116 -90.5 215.5t-163.5 169.5l-156 -160l-131 66l160 168q-96 45 -234 72l41 143q193 -40 305 -98l144 151l110 -96l-125 -129q183 -125 270 -326.5t87 -494.5q0 -258 -134 -413 t-358 -155q-204 0 -338.5 135.5t-134.5 370.5zM324 489q0 -176 75.5 -270t202.5 -94q142 0 222.5 108t80.5 312q0 71 -6 135q-51 76 -131 117t-176 41q-114 0 -191 -88.5t-77 -260.5z" />
<glyph unicode="&#xf1;" d="M199 0v1079h161l15 -147q65 81 160.5 126.5t193.5 45.5q153 0 228 -82.5t75 -237.5v-784h-188v662q0 69 -3.5 112.5t-13.5 81.5t-30 58t-52 31t-79 11q-81 0 -156 -51.5t-123 -122.5v-782h-188zM285 1393q77 180 231 180q42 0 78 -15.5t57 -33.5t45.5 -33.5t44.5 -15.5 q32 0 55 21.5t50 68.5l117 -52q-34 -80 -92 -131t-140 -51q-40 0 -76 15.5t-57.5 34t-46.5 34t-45 15.5q-32 0 -55 -22t-50 -69z" />
<glyph unicode="&#xf2;" d="M143 539q0 257 124 411t349 154q226 0 347.5 -151t121.5 -412q0 -257 -123.5 -411.5t-347.5 -154.5q-226 0 -348.5 151.5t-122.5 412.5zM344 539q0 -210 67 -311t203 -101t203.5 101.5t67.5 312.5q0 411 -269 411q-136 0 -204 -101.5t-68 -311.5zM369 1464l96 158 l385 -246l-59 -102z" />
<glyph unicode="&#xf3;" d="M143 539q0 257 124 411t349 154q226 0 347.5 -151t121.5 -412q0 -257 -123.5 -411.5t-347.5 -154.5q-226 0 -348.5 151.5t-122.5 412.5zM344 539q0 -210 67 -311t203 -101t203.5 101.5t67.5 312.5q0 411 -269 411q-136 0 -204 -101.5t-68 -311.5zM377 1376l385 244 l96 -158l-420 -188z" />
<glyph unicode="&#xf4;" d="M143 539q0 257 124 411t349 154q226 0 347.5 -151t121.5 -412q0 -257 -123.5 -411.5t-347.5 -154.5q-226 0 -348.5 151.5t-122.5 412.5zM272 1374l279 248h125l276 -248l-82 -90l-256 186l-256 -186zM344 539q0 -210 67 -311t203 -101t203.5 101.5t67.5 312.5 q0 411 -269 411q-136 0 -204 -101.5t-68 -311.5z" />
<glyph unicode="&#xf5;" d="M143 539q0 257 124 411t349 154q226 0 347.5 -151t121.5 -412q0 -257 -123.5 -411.5t-347.5 -154.5q-226 0 -348.5 151.5t-122.5 412.5zM276 1393q34 80 92 130t140 50q42 0 78 -15.5t57 -33.5t45.5 -33.5t44.5 -15.5q32 0 55 21.5t50 68.5l116 -52q-78 -182 -231 -182 q-40 0 -76 15.5t-57.5 34t-46.5 34t-45 15.5q-32 0 -55 -22t-50 -69zM344 539q0 -210 67 -311t203 -101t203.5 101.5t67.5 312.5q0 411 -269 411q-136 0 -204 -101.5t-68 -311.5z" />
<glyph unicode="&#xf6;" d="M143 539q0 257 124 411t349 154q226 0 347.5 -151t121.5 -412q0 -257 -123.5 -411.5t-347.5 -154.5q-226 0 -348.5 151.5t-122.5 412.5zM283 1440q0 51 33.5 83.5t84.5 32.5q50 0 83.5 -32.5t33.5 -83.5q0 -49 -33.5 -82t-83.5 -33q-51 0 -84.5 32.5t-33.5 82.5zM344 539 q0 -210 67 -311t203 -101t203.5 101.5t67.5 312.5q0 411 -269 411q-136 0 -204 -101.5t-68 -311.5zM713 1440q0 51 33 83.5t83 32.5q51 0 85 -32.5t34 -83.5q0 -49 -34 -82t-85 -33q-50 0 -83 33t-33 82z" />
<glyph unicode="&#xf7;" d="M229 561v158h770v-158h-770zM471 236q0 59 41.5 100t101.5 41t102 -41t42 -100q0 -60 -42 -102t-102 -42t-101.5 42t-41.5 102zM471 1047q0 59 41.5 100t101.5 41t102 -41t42 -100q0 -60 -42 -101t-102 -41t-101.5 41t-41.5 101z" />
<glyph unicode="&#xf8;" d="M143 539q0 257 124 411t349 154q35 0 97 -8l78 245l153 -45l-84 -254q110 -66 167.5 -194.5t57.5 -306.5q0 -257 -123.5 -411.5t-347.5 -154.5q-28 0 -98 9l-76 -252l-153 45l84 258q-112 66 -170 195t-58 309zM344 539q0 -260 100 -353l236 758q-30 6 -64 6 q-136 0 -204 -100.5t-68 -310.5zM551 133q27 -6 63 -6q136 0 203.5 101.5t67.5 312.5q0 251 -99 346z" />
<glyph unicode="&#xf9;" d="M199 295v784h188v-762q0 -103 42 -148.5t132 -45.5q82 0 159 47.5t122 118.5v790h188v-1079h-162l-14 143q-62 -80 -154 -124t-190 -44q-154 0 -232.5 83.5t-78.5 236.5zM358 1464l97 158l385 -246l-60 -102z" />
<glyph unicode="&#xfa;" d="M199 295v784h188v-762q0 -103 42 -148.5t132 -45.5q82 0 159 47.5t122 118.5v790h188v-1079h-162l-14 143q-62 -80 -154 -124t-190 -44q-154 0 -232.5 83.5t-78.5 236.5zM410 1376l385 244l96 -158l-420 -188z" />
<glyph unicode="&#xfb;" d="M199 295v784h188v-762q0 -103 42 -148.5t132 -45.5q82 0 159 47.5t122 118.5v790h188v-1079h-162l-14 143q-62 -80 -154 -124t-190 -44q-154 0 -232.5 83.5t-78.5 236.5zM274 1374l279 248h125l276 -248l-82 -90l-256 186l-256 -186z" />
<glyph unicode="&#xfc;" d="M199 295v784h188v-762q0 -103 42 -148.5t132 -45.5q82 0 159 47.5t122 118.5v790h188v-1079h-162l-14 143q-62 -80 -154 -124t-190 -44q-154 0 -232.5 83.5t-78.5 236.5zM283 1440q0 51 33.5 83.5t84.5 32.5q50 0 83.5 -32.5t33.5 -83.5q0 -49 -33.5 -82t-83.5 -33 q-51 0 -84.5 32.5t-33.5 82.5zM713 1440q0 51 33 83.5t83 32.5q51 0 85 -32.5t34 -83.5q0 -49 -34 -82t-85 -33q-50 0 -83 33t-33 82z" />
<glyph unicode="&#xfd;" d="M119 1079h200l295 -927h9l292 927h195l-377 -1085q-25 -72 -53.5 -129.5t-70.5 -111t-93.5 -91t-122 -64t-155.5 -34.5l-27 147q108 18 175.5 56.5t102.5 91t66 141.5h-63zM410 1376l385 244l96 -158l-420 -188z" />
<glyph unicode="&#xfe;" d="M199 -436v1949l188 23v-588q59 75 138.5 115.5t168.5 40.5q391 0 391 -563q0 -256 -106.5 -411t-308.5 -155q-180 0 -283 123v-512zM387 260q86 -131 238 -131q130 0 195 101t65 311q0 211 -58.5 312t-179.5 101q-149 0 -260 -168v-526z" />
<glyph unicode="&#xff;" d="M119 1079h200l295 -927h9l292 927h195l-377 -1085q-25 -72 -53.5 -129.5t-70.5 -111t-93.5 -91t-122 -64t-155.5 -34.5l-27 147q108 18 175.5 56.5t102.5 91t66 141.5h-63zM285 1440q0 51 33.5 83.5t84.5 32.5q50 0 83.5 -32.5t33.5 -83.5q0 -49 -33.5 -82t-83.5 -33 q-51 0 -84.5 32.5t-33.5 82.5zM715 1440q0 51 33 83.5t83 32.5q51 0 85 -32.5t34 -83.5q0 -49 -34 -82t-85 -33q-50 0 -83 33t-33 82z" />
<glyph unicode="&#x152;" d="M0 702q0 357 109.5 545.5t326.5 188.5q72 0 152 -25h655l-22 -154h-486q113 -141 127 -464h307v-154h-307q-9 -333 -135 -485h533v-154h-678q-84 -25 -146 -25q-436 0 -436 727zM201 702q0 -304 57.5 -438.5t177.5 -134.5q126 0 183 134t57 442q0 309 -56 442t-184 133 q-123 0 -179 -135t-56 -443z" />
<glyph unicode="&#x153;" d="M-6 539q0 172 35.5 295.5t115 196.5t199.5 73q118 0 184.5 -52.5t104.5 -154.5q85 207 285 207q339 0 339 -533q0 -42 -4 -96h-532q14 -182 66 -265t155 -83q53 0 96 19t99 61l84 -123q-135 -109 -283 -109q-220 0 -307 203q-42 -99 -108.5 -151t-178.5 -52 q-176 0 -263 149t-87 415zM186 539q0 -219 41.5 -315.5t137.5 -96.5t135 93t39 321q0 216 -40 314.5t-134 98.5q-95 0 -137 -100t-42 -315zM721 614h360q-3 176 -40 258t-130 82q-90 0 -134 -76.5t-56 -263.5z" />
<glyph unicode="&#x178;" d="M41 1411h215l360 -690h7l362 690h203l-475 -868v-543h-197v541zM283 1692q0 49 33 81.5t83 32.5q51 0 85 -32.5t34 -81.5q0 -51 -34 -84t-85 -33q-50 0 -83 33t-33 84zM711 1692q0 49 33.5 81.5t84.5 32.5q50 0 84.5 -32.5t34.5 -81.5q0 -50 -34.5 -83.5t-84.5 -33.5 q-51 0 -84.5 33t-33.5 84z" />
<glyph unicode="&#x2c6;" d="M274 1407l279 231h125l276 -231l-80 -92l-258 172l-260 -172z" />
<glyph unicode="&#x2dc;" d="M276 1409q77 180 232 180q41 0 77 -15.5t56.5 -33.5t45.5 -33.5t46 -15.5q32 0 55 21.5t50 68.5l114 -53q-77 -180 -231 -180q-40 0 -76 15.5t-57 33.5t-45.5 33.5t-44.5 15.5q-33 0 -55 -21t-50 -69z" />
<glyph unicode="&#x2000;" horiz-adv-x="973" />
<glyph unicode="&#x2001;" horiz-adv-x="1946" />
<glyph unicode="&#x2002;" horiz-adv-x="973" />
<glyph unicode="&#x2003;" horiz-adv-x="1946" />
<glyph unicode="&#x2004;" horiz-adv-x="648" />
<glyph unicode="&#x2005;" horiz-adv-x="486" />
<glyph unicode="&#x2006;" horiz-adv-x="324" />
<glyph unicode="&#x2007;" horiz-adv-x="324" />
<glyph unicode="&#x2008;" horiz-adv-x="243" />
<glyph unicode="&#x2009;" horiz-adv-x="389" />
<glyph unicode="&#x200a;" horiz-adv-x="108" />
<glyph unicode="&#x2010;" d="M252 561v160h725v-160h-725z" />
<glyph unicode="&#x2011;" d="M252 561v160h725v-160h-725z" />
<glyph unicode="&#x2012;" d="M252 561v160h725v-160h-725z" />
<glyph unicode="&#x2013;" d="M66 561v160h1097v-160h-1097z" />
<glyph unicode="&#x2014;" d="M0 561v160h1229v-160h-1229z" />
<glyph unicode="&#x2018;" d="M442 1124q0 61 39 144l166 348h139l-84 -375q58 -41 58 -117q0 -64 -47 -108.5t-113 -44.5t-112 44.5t-46 108.5z" />
<glyph unicode="&#x2019;" d="M440 971l84 375q-57 41 -57 116q0 64 47.5 109t112.5 45q66 0 112.5 -45t46.5 -109q0 -56 -41 -143l-165 -348h-140z" />
<glyph unicode="&#x201a;" d="M440 -373l84 375q-57 41 -57 117q0 64 47.5 108.5t112.5 44.5q66 0 112.5 -44.5t46.5 -108.5q0 -57 -41 -144l-165 -348h-140z" />
<glyph unicode="&#x201c;" d="M219 1124q0 61 39 144l164 348h141l-84 -375q58 -41 58 -117q0 -64 -47 -108.5t-113 -44.5q-67 0 -112.5 44t-45.5 109zM666 1124q0 61 39 144l165 348h140l-84 -375q57 -41 57 -117q0 -64 -47.5 -108.5t-112.5 -44.5q-66 0 -111.5 44.5t-45.5 108.5z" />
<glyph unicode="&#x201d;" d="M217 971l82 375q-55 42 -55 116q0 64 47 109t112 45q66 0 113 -45t47 -109q0 -52 -43 -143l-164 -348h-139zM664 971l84 375q-58 41 -58 116q0 64 47.5 109t112.5 45q66 0 113 -45t47 -109q0 -56 -41 -143l-166 -348h-139z" />
<glyph unicode="&#x201e;" d="M219 -373l84 375q-57 41 -57 117q0 64 47.5 108.5t112.5 44.5q66 0 112.5 -44.5t46.5 -108.5q0 -57 -41 -144l-166 -348h-139zM664 -373l84 375q-58 41 -58 117q0 64 47.5 108.5t112.5 44.5q66 0 112 -44.5t46 -108.5q0 -61 -39 -144l-166 -348h-139z" />
<glyph unicode="&#x2022;" d="M360 700q0 109 72.5 180.5t181.5 71.5t181.5 -72.5t72.5 -181.5t-72.5 -180.5t-181.5 -71.5t-181.5 72.5t-72.5 181.5z" />
<glyph unicode="&#x2026;" d="M61 119q0 59 41 100t101 41q61 0 102 -41t41 -100q0 -60 -41 -102t-102 -42q-60 0 -101 42t-41 102zM471 119q0 59 41.5 100t101.5 41t101 -41t41 -100q0 -60 -41 -102t-101 -42t-101.5 42t-41.5 102zM883 119q0 59 40.5 100t100.5 41q61 0 102 -41t41 -100 q0 -60 -41 -102t-102 -42q-60 0 -100.5 42t-40.5 102z" />
<glyph unicode="&#x202f;" horiz-adv-x="389" />
<glyph unicode="&#x2039;" d="M379 532v134l358 430l113 -72l-272 -424l272 -424l-113 -72z" />
<glyph unicode="&#x203a;" d="M379 176l272 424l-272 424l113 72l358 -430v-134l-358 -428z" />
<glyph unicode="&#x205f;" horiz-adv-x="486" />
<glyph unicode="&#x20ac;" d="M72 494l30 127h146q-2 27 -2 86q0 36 4 98h-178l30 125h164q45 241 184.5 373.5t335.5 132.5q103 0 180 -23.5t150 -71.5l-90 -133q-109 70 -231 70q-135 0 -219.5 -83t-112.5 -265h493l-30 -125h-477q-5 -72 -5 -98q0 -29 5 -86h438l-31 -127h-399q25 -188 103 -274.5 t224 -86.5q167 0 289 103v-187q-130 -74 -297 -74q-215 0 -346 133.5t-168 385.5h-190z" />
<glyph unicode="&#x2122;" d="M20 1290v121h465l-24 -121h-146v-680h-137v680h-158zM539 610l32 801h195l100 -543h8l84 543h201l31 -801h-133l-19 453q-4 141 0 213h-6l-94 -582h-137l-113 582h-6q4 -68 0 -211l-16 -455h-127z" />
<glyph unicode="&#x25fc;" horiz-adv-x="1075" d="M0 0v1075h1075v-1075h-1075z" />
<glyph unicode="&#xfb01;" d="M39 934v145h182v127q0 149 114 239.5t290 90.5q164 0 301 -59l-60 -138q-102 45 -231 45q-225 0 -225 -176v-129h606v-934h186v-145h-559v145h184v789h-417v-934h-189v934h-182z" />
<glyph unicode="&#xfb02;" d="M27 934v145h182v127q0 149 113.5 239.5t289.5 90.5q102 0 203 -37l160 33v-1278q0 -67 26 -95t76 -28q46 0 107 23l49 -136q-88 -43 -186 -43q-118 0 -189.5 68t-71.5 203v1118q-76 20 -163 20q-226 0 -226 -176v-129h250l-22 -145h-228v-934h-188v934h-182z" />
</font>
</defs>
</svg>
