<?xml version="1.0" standalone="no"?>
<!DOCTYPE svg PUBLIC "-//W3C//DTD SVG 1.1//EN" "http://www.w3.org/Graphics/SVG/1.1/DTD/svg11.dtd" >
<svg xmlns="http://www.w3.org/2000/svg">
<metadata></metadata>
<defs>
<font id="fira_mono_otbold" horiz-adv-x="1228" >
<font-face units-per-em="2048" ascent="1638" descent="-410" />
<missing-glyph horiz-adv-x="500" />
<glyph />
<glyph />
<glyph horiz-adv-x="682" />
<glyph unicode="&#xd;" />
<glyph unicode=" " />
<glyph unicode="!" d="M428 152q0 76 55 131t131 55q78 0 132.5 -54.5t54.5 -131.5t-54.5 -132t-132.5 -55q-76 0 -131 55t-55 132zM440 1419h348l-40 -895h-265z" />
<glyph unicode="&#x22;" d="M262 1520h309l-39 -574h-231zM655 1520h312l-39 -574h-234z" />
<glyph unicode="#" d="M72 295v215h149l53 403h-127v217h156l37 289h272l-39 -289h193l39 289h270l-39 -289h123v-217h-151l-52 -403h127v-215h-155l-39 -295h-271l39 295h-192l-39 -295h-270l37 295h-121zM492 510h192l53 403h-192z" />
<glyph unicode="$" d="M84 162l158 182q145 -126 307 -137v422q-221 73 -317.5 171.5t-96.5 246.5q0 167 111.5 274t302.5 127v305h166v-303q233 -19 403 -162l-157 -166q-111 89 -246 99v-355q109 -36 184.5 -74.5t133 -91t85 -122t27.5 -160.5q0 -176 -113.5 -297.5t-316.5 -147.5v-305h-166 v299q-144 10 -264 63.5t-201 131.5zM428 1085q0 -55 23 -87.5t98 -67.5v289q-59 -10 -90 -47t-31 -87zM715 213q125 27 125 166q0 62 -27 105t-98 79v-350z" />
<glyph unicode="%" d="M6 1110q0 158 78.5 252t214.5 94q137 0 214 -91.5t77 -254.5q0 -165 -77 -255.5t-214 -90.5t-215 90.5t-78 255.5zM164 -8l702 1474l174 -71l-704 -1475zM217 1110q0 -95 18.5 -140.5t63.5 -45.5q48 0 63 42t15 144q0 104 -15 144t-63 40q-49 0 -65.5 -42.5t-16.5 -141.5 zM637 328q0 158 78 251t215 93t214 -91t77 -253q0 -165 -77 -255.5t-214 -90.5q-139 0 -216 90.5t-77 255.5zM850 328q0 -96 17.5 -141.5t62.5 -45.5q48 0 64 43t16 144q0 103 -15.5 143.5t-64.5 40.5q-48 0 -64 -43t-16 -141z" />
<glyph unicode="&#x26;" d="M76 406q0 315 311 391v8q-242 65 -242 307q0 147 121 244.5t305 97.5q129 0 223.5 -37.5t176.5 -124.5l-176 -151q-48 49 -88 69.5t-97 20.5q-71 0 -110 -43t-39 -117q0 -80 52 -132t136 -52h535v-209h-133v-535q-170 -178 -476 -178q-236 0 -367.5 123t-131.5 318z M395 430q0 -103 52 -165t147 -62q99 0 154 55v420h-117q-115 0 -175.5 -72.5t-60.5 -175.5z" />
<glyph unicode="'" d="M459 1520h309l-39 -574h-231z" />
<glyph unicode="(" d="M287 717q0 119 15.5 226t47.5 200.5t68.5 171t92.5 159t104 142t118 141.5l211 -141q-170 -224 -248 -426.5t-78 -472.5t78 -472.5t248 -426.5l-211 -142q-85 98 -141 170t-119 175t-100 200t-61.5 225.5t-24.5 270.5z" />
<glyph unicode=")" d="M285 -182q170 224 247.5 426.5t77.5 472.5t-77.5 472.5t-247.5 426.5l211 141q70 -81 118 -141.5t104 -142t92.5 -159t68.5 -171t47.5 -200.5t15.5 -226q0 -142 -24.5 -270.5t-61.5 -225.5t-100 -200t-119 -175t-141 -170z" />
<glyph unicode="*" d="M178 1102l82 258l258 -125l-45 287h281l-45 -289l258 127l84 -258l-283 -49l207 -203l-225 -164l-138 254l-131 -256l-225 164l203 207z" />
<glyph unicode="+" d="M168 514v252h309v319h273v-319h311v-252h-311v-319h-273v319h-309z" />
<glyph unicode="," d="M385 -418l104 436q-98 61 -98 185q0 94 64 157.5t159 63.5q97 0 161.5 -64t64.5 -159q0 -39 -12.5 -85t-26 -79.5t-51.5 -120.5l-148 -334h-217z" />
<glyph unicode="-" d="M221 514v254h787v-254h-787z" />
<glyph unicode="." d="M385 195q0 94 67 161.5t162 67.5t162.5 -67.5t67.5 -161.5t-67.5 -162t-162.5 -68t-162 68t-67 162z" />
<glyph unicode="/" d="M57 -113l861 1786l253 -117l-858 -1785z" />
<glyph unicode="0" d="M100 713q0 355 130.5 549t383.5 194q252 0 383 -194t131 -549q0 -357 -131 -552.5t-383 -195.5q-253 0 -383.5 195.5t-130.5 552.5zM418 713q0 -281 47 -396.5t149 -115.5t148.5 116.5t46.5 395.5q0 275 -47.5 390.5t-147.5 115.5q-102 0 -149 -117.5t-47 -388.5z M479 707q0 56 38 94.5t95 38.5q58 0 97 -38.5t39 -94.5q0 -57 -39 -96.5t-97 -39.5q-57 0 -95 39.5t-38 96.5z" />
<glyph unicode="1" d="M117 1141l458 278h291v-1171h264v-248h-925v248h342v850l-285 -172z" />
<glyph unicode="2" d="M100 1212q184 244 490 244q117 0 211 -32.5t153.5 -88.5t91 -129t31.5 -157q0 -159 -125.5 -335.5t-445.5 -463.5h604l-35 -250h-946v231q364 353 489 510t125 279q0 85 -51 134.5t-137 49.5q-73 0 -133.5 -34t-120.5 -109z" />
<glyph unicode="3" d="M51 178l185 172q118 -135 294 -135q107 0 172.5 54.5t65.5 152.5q0 211 -240 211h-129l37 225h92q97 0 155 47t58 137q0 77 -56.5 123.5t-147.5 46.5q-155 0 -283 -122l-168 174q198 192 487 192q223 0 354.5 -104.5t131.5 -259.5q0 -129 -73.5 -213.5t-197.5 -120.5v-8 q141 -21 228.5 -106.5t87.5 -244.5q0 -185 -150.5 -309.5t-400.5 -124.5q-314 0 -502 213z" />
<glyph unicode="4" d="M90 297v217l393 942l279 -102l-334 -811h246l37 340h282v-340h142v-246h-142v-297h-319v297h-584z" />
<glyph unicode="5" d="M84 178l188 172q104 -135 258 -135q112 0 180 68.5t68 177.5q0 124 -54 182.5t-146 58.5q-90 0 -172 -47h-222v764h869l-37 -233h-518v-303q95 45 209 45q176 0 292.5 -125.5t116.5 -335.5q0 -219 -155.5 -360.5t-403.5 -141.5q-151 0 -271.5 56.5t-201.5 156.5z" />
<glyph unicode="6" d="M100 641q0 239 73.5 423t215 288t330.5 104q175 0 309 -92l-125 -199q-82 58 -178 58q-117 0 -194 -104.5t-89 -293.5q62 63 140.5 95t156.5 32q172 0 285 -126t113 -345q0 -143 -60.5 -259.5t-177.5 -186.5t-268 -70q-110 0 -199.5 35.5t-150.5 97t-102.5 148t-60 185 t-18.5 210.5zM442 621q3 -220 46 -321t147 -101q86 0 130 74t44 190q0 140 -39.5 202t-116.5 62q-56 0 -111.5 -27.5t-99.5 -78.5z" />
<glyph unicode="7" d="M137 1174v245h955v-221l-549 -1231l-312 96l529 1111h-623z" />
<glyph unicode="8" d="M86 377q0 119 68.5 209.5t191.5 144.5q-205 130 -205 344q0 170 134.5 275.5t340.5 105.5q213 0 342 -97.5t129 -268.5q0 -89 -54.5 -172.5t-164.5 -145.5q275 -139 275 -387q0 -83 -34.5 -158t-99.5 -134t-168.5 -93.5t-232.5 -34.5q-127 0 -228 33.5t-164 90.5 t-96.5 131t-33.5 157zM414 397q0 -91 52 -144.5t150 -53.5q99 0 149 53.5t50 134.5q0 99 -58 150.5t-210 105.5q-133 -86 -133 -246zM453 1071q0 -78 48 -128t156 -91q119 88 119 219q0 73 -41.5 117.5t-118.5 44.5q-78 0 -120.5 -42t-42.5 -120z" />
<glyph unicode="9" d="M88 965q0 214 147.5 352.5t370.5 138.5q127 0 227.5 -42t165 -117t98 -175.5t33.5 -220.5q0 -413 -208 -641t-660 -321l-67 229q256 65 400.5 175.5t186.5 279.5l-6 4q-109 -129 -287 -129q-171 0 -286 128t-115 339zM418 975q0 -131 47.5 -189.5t126.5 -58.5 q118 0 201 125q0 196 -39 283.5t-150 87.5q-88 0 -137 -63.5t-49 -184.5z" />
<glyph unicode=":" d="M397 182q0 88 63.5 150.5t153.5 62.5t152.5 -62.5t62.5 -150.5q0 -90 -62.5 -153.5t-152.5 -63.5t-153.5 63.5t-63.5 153.5zM397 889q0 88 63.5 152.5t153.5 64.5t152.5 -64t62.5 -153q0 -88 -62.5 -151.5t-152.5 -63.5t-153.5 63.5t-63.5 151.5z" />
<glyph unicode=";" d="M391 -406l101 420q-95 63 -95 179q0 91 62.5 152t154.5 61t153.5 -62t61.5 -154q0 -36 -11.5 -80t-26 -79.5t-48.5 -114.5l-141 -322h-211zM397 889q0 88 63.5 152.5t153.5 64.5t152.5 -64t62.5 -153q0 -88 -62.5 -151.5t-152.5 -63.5t-153.5 63.5t-63.5 151.5z" />
<glyph unicode="&#x3c;" d="M141 526v232l803 497l143 -225l-663 -387l663 -379l-147 -233z" />
<glyph unicode="=" d="M147 295v254h934v-254h-934zM147 725v256h934v-256h-934z" />
<glyph unicode="&#x3e;" d="M141 254l664 389l-664 377l146 235l800 -495v-234l-798 -495z" />
<glyph unicode="?" d="M113 1235q189 221 493 221q224 0 348.5 -99.5t124.5 -244.5q0 -67 -21 -121.5t-54.5 -91t-74.5 -67t-81.5 -57.5t-74 -55t-54.5 -67.5t-21 -87.5v-41h-299v51q0 72 18.5 130t48.5 96t66 68.5t72 54t66 46t48.5 51t18.5 62.5q0 54 -45 84.5t-117 30.5q-146 0 -256 -125z M367 152q0 77 54 131.5t132 54.5q77 0 131.5 -55t54.5 -131q0 -77 -55 -132t-131 -55q-78 0 -132 55t-54 132z" />
<glyph unicode="@" d="M-4 1219q139 123 282 180t310 57q143 0 252.5 -39.5t182 -111t119 -179t66 -234.5t19.5 -286q0 -163 -8.5 -282.5t-30 -221t-58 -164t-93 -97t-134.5 -34.5q-110 0 -170.5 78t-75.5 205h-8q-36 -84 -110 -137t-177 -53q-72 0 -128 23.5t-94 64.5t-62.5 100.5t-35.5 128 t-11 150.5q0 260 109 405.5t327 145.5q177 0 346 -91v-614q0 -111 19 -157t61 -46q55 0 69.5 117t14.5 461q0 135 -11 235t-38 184.5t-73 137t-116.5 81.5t-167.5 29q-229 0 -446 -188zM324 367q0 -143 21 -203t77 -60q26 0 46 9.5t31.5 22.5t19.5 34.5t11.5 38t6.5 39.5 v446q-40 19 -76 19q-79 0 -108 -74t-29 -272z" />
<glyph unicode="A" d="M-25 0l435 1419h411l434 -1419h-364l-74 305h-411l-74 -305h-357zM459 551h303l-146 600h-10z" />
<glyph unicode="B" d="M113 0v1419h452q92 0 169.5 -11t148.5 -37.5t120 -67t78 -103t29 -143.5q0 -118 -73.5 -197t-170.5 -102v-8q45 -9 85 -24t82 -42t71 -62.5t48 -88.5t19 -117q0 -416 -585 -416h-473zM453 248h120q54 0 94.5 7t77.5 25.5t56.5 56.5t19.5 93q0 105 -60.5 151t-172.5 46 h-135v-379zM453 854h110q108 0 156.5 39.5t48.5 128.5q0 83 -52 120.5t-163 37.5h-100v-326z" />
<glyph unicode="C" d="M68 713q0 174 50 315.5t139 234.5t210.5 143t263.5 50q146 0 254.5 -40t204.5 -118l-166 -196q-126 102 -268 102q-154 0 -244 -121t-90 -370q0 -246 86.5 -366t239.5 -120q94 0 163 31t144 88l153 -196q-192 -185 -483 -185q-300 0 -478.5 195t-178.5 553z" />
<glyph unicode="D" d="M104 0v1419h361q83 0 154.5 -8t146 -29t134 -54.5t112.5 -88t89 -126.5t56.5 -172.5t20.5 -223.5q0 -717 -689 -717h-385zM444 246h70q74 0 128 22t96.5 74t64.5 145.5t22 229.5q0 111 -15.5 193t-42 132t-67.5 80t-85 41t-101 11h-70v-928z" />
<glyph unicode="E" d="M178 0v1419h932l-35 -241h-557v-338h492v-238h-492v-358h592v-244h-932z" />
<glyph unicode="F" d="M199 0v1419h936l-35 -241h-559v-373h495v-244h-495v-561h-342z" />
<glyph unicode="G" d="M45 713q0 142 33.5 262.5t93.5 208t142.5 149.5t181.5 92.5t209 30.5q146 0 253.5 -45.5t200.5 -130.5l-178 -184q-67 59 -126 85.5t-132 26.5q-151 0 -239.5 -121.5t-88.5 -375.5q0 -184 30.5 -294t89.5 -157t155 -47t174 43v322h-176l-33 237h530v-706 q-234 -144 -499 -144q-302 0 -461.5 191.5t-159.5 556.5z" />
<glyph unicode="H" d="M104 0v1419h340v-549h340v549h340v-1419h-340v606h-340v-606h-340z" />
<glyph unicode="I" d="M152 0v250h292v921h-292v248h925v-248h-293v-921h293v-250h-925z" />
<glyph unicode="J" d="M168 -109q259 80 364 184t105 285v811h-461v248h801v-1044q0 -119 -32.5 -217.5t-91.5 -174.5t-150.5 -138.5t-202 -109t-252.5 -85.5z" />
<glyph unicode="K" d="M119 0v1419h340v-1419h-340zM469 758l383 661h356l-397 -637l436 -782h-393z" />
<glyph unicode="L" d="M188 0v1419h340v-1151h615l-35 -268h-920z" />
<glyph unicode="M" d="M35 0l80 1419h348l149 -891h9l145 891h348l80 -1419h-297l-16 604q-3 47 -3 102q0 43 2 91q4 108 7 152.5t12 150.5h-8l-150 -858h-256l-161 858h-9q22 -259 22 -444q0 -30 -1 -58l-10 -598h-291z" />
<glyph unicode="N" d="M104 0v1419h424l351 -1104h8q-51 226 -51 566v538h288v-1419h-411l-363 1102h-8q18 -85 34.5 -245t16.5 -327v-530h-289z" />
<glyph unicode="O" d="M45 711q0 227 63.5 393.5t193 259t312.5 92.5q276 0 423 -197t147 -548q0 -227 -64 -393.5t-193.5 -259.5t-312.5 -93q-276 0 -422.5 197.5t-146.5 548.5zM393 711q0 -262 52 -380t169 -118q120 0 171 118t51 380t-52 379.5t-170 117.5t-169.5 -117.5t-51.5 -379.5z" />
<glyph unicode="P" d="M125 0v1419h448q294 0 451.5 -116.5t157.5 -346.5q0 -242 -151 -363.5t-413 -121.5h-153v-471h-340zM465 717h125q241 0 241 239q0 222 -253 222h-113v-461z" />
<glyph unicode="Q" d="M66 711q0 228 60 393.5t186 258.5t309 93q275 0 416 -196t141 -549q0 -468 -279 -621l2 -8q156 -29 250 -105t149 -237l-276 -94q-29 68 -55.5 116t-63 90t-79.5 66.5t-100.5 38.5t-131.5 14q-262 0 -395 193.5t-133 546.5zM418 711q0 -267 44.5 -382.5t158.5 -115.5 q117 0 159.5 114t42.5 384q0 269 -43 382t-159 113q-115 0 -159 -114.5t-44 -380.5z" />
<glyph unicode="R" d="M117 0v1419h448q293 0 439.5 -106.5t146.5 -325.5q0 -144 -77.5 -241t-205.5 -148l371 -598h-381l-305 541h-96v-541h-340zM457 774h123q110 0 165.5 51.5t55.5 161.5q0 100 -59 147.5t-177 47.5h-108v-408z" />
<glyph unicode="S" d="M23 170l172 190q162 -143 383 -143q106 0 169.5 45.5t63.5 126.5q0 76 -53.5 119.5t-202.5 89.5q-243 76 -347 179.5t-104 264.5q0 127 73 222.5t194 143.5t270 48q313 0 506 -184l-160 -185q-143 119 -319 119q-97 0 -154 -35.5t-57 -101.5t56 -103.5t224 -91.5 q108 -35 182 -72.5t132 -91t86 -126t28 -168.5q0 -202 -155 -326.5t-420 -124.5q-184 0 -328.5 56t-238.5 149z" />
<glyph unicode="T" d="M45 1159v260h1151l-35 -260h-379v-1159h-340v1159h-397z" />
<glyph unicode="U" d="M84 475v944h342v-815q0 -83 4 -139.5t15.5 -106.5t32.5 -79t54.5 -45.5t81.5 -16.5t82 16.5t54.5 45.5t32.5 79t16 106.5t4 139.5v815h342v-944q0 -148 -58 -261.5t-179.5 -181t-293.5 -67.5q-260 0 -395 137.5t-135 372.5z" />
<glyph unicode="V" d="M-2 1419h360l256 -1136h11l260 1136h348l-408 -1419h-422z" />
<glyph unicode="W" d="M-6 1419h317l39 -1110h8l115 946h291l102 -944h8l66 1108h295l-168 -1419h-352l-97 995h-8l-106 -995h-359z" />
<glyph unicode="X" d="M2 0l401 754l-370 665h370l203 -442h8l215 442h361l-381 -651l416 -768h-371l-244 526h-8l-237 -526h-363z" />
<glyph unicode="Y" d="M-18 1419h372l262 -598h9l264 598h358l-463 -887v-532h-340v530z" />
<glyph unicode="Z" d="M84 0v254l661 903h-598v262h986v-256l-648 -893h660l-35 -270h-1026z" />
<glyph unicode="[" d="M317 -252v1938h594v-244h-284v-1452h284v-242h-594z" />
<glyph unicode="\" d="M57 1556l256 117l858 -1786l-256 -116z" />
<glyph unicode="]" d="M317 -8h285v1450h-285v244h594v-1938h-594v244z" />
<glyph unicode="^" d="M78 1079l387 650h299l387 -650h-320l-219 406l-211 -406h-323z" />
<glyph unicode="_" d="M57 -125h1114v-256h-1114v256z" />
<glyph unicode="`" d="M322 1518l143 243l442 -286l-98 -166z" />
<glyph unicode="a" d="M68 307q0 177 140 274t392 97h145v39q0 82 -56.5 124t-160.5 42q-124 0 -295 -58l-75 217q103 39 217 60.5t203 21.5q247 0 365 -96t118 -289v-424q0 -60 16.5 -88.5t55.5 -42.5l-68 -215q-197 18 -268 144q-60 -72 -158 -110t-201 -38q-167 0 -268.5 95t-101.5 247z M408 330q0 -61 39.5 -96t103.5 -35q55 0 110.5 31.5t83.5 86.5v175h-77q-260 0 -260 -162z" />
<glyph unicode="b" d="M141 0v1520l328 34v-577q52 68 124.5 107.5t151.5 39.5q206 0 305 -151t99 -426q0 -170 -49 -300t-149 -206t-238 -76q-82 0 -152 34.5t-117 98.5l-12 -98h-291zM469 301q64 -98 156 -98q186 0 186 340q0 79 -8 138.5t-22 98t-36 61.5t-47 32.5t-57 9.5q-97 0 -172 -125 v-457z" />
<glyph unicode="c" d="M129 537q0 170 68.5 302.5t198.5 208.5t302 76q238 0 400 -137l-142 -196q-105 81 -237 81q-246 0 -246 -335q0 -314 246 -314q122 0 231 82l148 -209q-163 -131 -404 -131q-262 0 -413.5 157t-151.5 415z" />
<glyph unicode="d" d="M80 547q0 256 118 416.5t316 160.5q146 0 246 -100v530l327 -34v-1520h-290l-17 119q-48 -69 -124 -111.5t-177 -42.5q-197 0 -298 155.5t-101 426.5zM418 545q0 -189 43.5 -264.5t124.5 -75.5q99 0 174 125v467q-72 88 -158 88q-184 0 -184 -340z" />
<glyph unicode="e" d="M92 543q0 121 35.5 226.5t101 184.5t167 124.5t225.5 45.5q237 0 376.5 -148.5t139.5 -410.5q0 -58 -7 -116h-704q32 -246 260 -246q143 0 272 98l138 -186q-85 -68 -197 -109t-237 -41q-276 0 -423 158t-147 420zM422 645h395q-3 260 -194 260q-181 0 -201 -260z" />
<glyph unicode="f" d="M135 793v227h227v156q0 167 118.5 272.5t334.5 105.5q213 0 375 -69l-90 -213q-107 41 -234 41q-95 0 -136.5 -35t-41.5 -115v-143h334l-37 -227h-297v-793h-326v793h-227z" />
<glyph unicode="g" d="M47 -178q0 52 12 90.5t45 77.5l252 -62q-14 -40 -14 -65q0 -99 240 -99q76 0 128 8t78.5 23.5t37 33t10.5 40.5q0 50 -51.5 74.5t-194.5 33.5q-163 11 -257.5 42t-130.5 77.5t-36 120.5q0 107 119 186q-191 113 -191 320q0 182 131 291.5t357 109.5q291 0 528 142 l80 -244q-97 -41 -313 -41v-8q194 -82 194 -275q0 -159 -127.5 -260.5t-339.5 -101.5q-72 0 -135 14q-25 -25 -25 -49q0 -26 18 -39t82.5 -23.5t200.5 -19.5q203 -13 311.5 -100t108.5 -228q0 -169 -154 -257.5t-427 -88.5q-277 0 -407 76.5t-130 200.5zM424 729 q0 -85 47 -131.5t125 -46.5q76 0 119 47t43 135q0 84 -41.5 127t-120.5 43t-125.5 -46.5t-46.5 -127.5z" />
<glyph unicode="h" d="M141 0v1520l328 32v-575q141 147 319 147q144 0 221.5 -84.5t77.5 -240.5v-799h-327v760q0 123 -103 123q-91 0 -188 -131v-752h-328z" />
<glyph unicode="i" d="M174 0v223h307v641h-297v223h625v-864h276v-223h-911zM451 1475q0 79 55 131.5t139 52.5t139.5 -53t55.5 -131q0 -79 -55.5 -132t-139.5 -53t-139 53t-55 132z" />
<glyph unicode="j" d="M141 -213q76 28 129.5 52t108 59t87 72.5t53 90t20.5 115.5v688h-349v223h676v-823q0 -125 -28 -225t-77 -173t-129 -133t-169.5 -102.5t-212.5 -85.5zM487 1475q0 78 55.5 131t139.5 53t139.5 -53t55.5 -131q0 -79 -55.5 -132t-139.5 -53t-139.5 53t-55.5 132z" />
<glyph unicode="k" d="M141 0v1520l328 34v-1554h-328zM481 596l355 491h342l-355 -481l383 -606h-372z" />
<glyph unicode="l" d="M55 1296v224h647v-1178q0 -119 140 -119q70 0 153 33l78 -219q-137 -72 -315 -72q-195 0 -289 110.5t-94 309.5v911h-320z" />
<glyph unicode="m" d="M53 0v1087h240l22 -104q54 73 106.5 107t121.5 34q130 0 166 -129q112 129 239 129q118 0 173 -76.5t55 -242.5v-805h-281v768q0 57 -10.5 79.5t-40.5 22.5q-57 0 -113 -69v-801h-229v768q0 58 -9.5 80t-39.5 22q-59 0 -115 -75v-795h-285z" />
<glyph unicode="n" d="M141 0v1087h287l23 -124q142 161 337 161q144 0 221.5 -84.5t77.5 -240.5v-799h-327v707q0 99 -22 137.5t-81 38.5q-91 0 -188 -131v-752h-328z" />
<glyph unicode="o" d="M84 545q0 263 141.5 421t388.5 158q249 0 390 -156.5t141 -420.5q0 -274 -140.5 -428t-390.5 -154q-251 0 -390.5 152.5t-139.5 427.5zM422 545q0 -178 46.5 -259t145.5 -81t146 81t47 261q0 174 -47 255t-146 81t-145.5 -81t-46.5 -257z" />
<glyph unicode="p" d="M141 -455v1542h291l14 -120q63 81 141.5 119t160.5 38q397 0 397 -577q0 -169 -49 -300t-144.5 -206.5t-224.5 -75.5q-160 0 -258 113v-498zM469 301q35 -51 70.5 -73.5t85.5 -22.5q89 0 135.5 80.5t46.5 257.5q0 131 -20.5 207.5t-55.5 104.5t-90 28q-97 0 -172 -125 v-457z" />
<glyph unicode="q" d="M84 547q0 169 50 298.5t149.5 204t236.5 74.5q165 0 266 -123l15 86h286v-1542l-327 35v510q-106 -125 -279 -125q-104 0 -181 41t-124 118.5t-69.5 182.5t-22.5 240zM422 545q0 -130 20.5 -206t56 -104t91.5 -28q99 0 170 123v467q-69 88 -154 88q-91 0 -137.5 -81 t-46.5 -259z" />
<glyph unicode="r" d="M152 0v223h225v641h-225v223h516l26 -202q37 108 118 171.5t181 63.5q65 0 135 -18l-53 -318q-58 17 -125 17q-96 0 -156.5 -68.5t-88.5 -185.5v-324h276v-223h-829z" />
<glyph unicode="s" d="M86 125l164 180q135 -106 319 -106q82 0 130.5 25.5t48.5 74.5q0 54 -47.5 81.5t-211.5 72.5q-161 43 -248 121.5t-87 213.5q0 150 125 243t352 93q132 0 244 -34.5t184 -88.5l-131 -192q-129 82 -291 82q-154 0 -154 -82q0 -41 48 -67t208 -72q87 -24 144.5 -49 t107 -64.5t73 -96t23.5 -134.5q0 -116 -72 -199.5t-186.5 -122.5t-257.5 -39q-301 0 -485 160z" />
<glyph unicode="t" d="M127 862v225h227v236l328 39v-275h350l-33 -225h-317v-489q0 -81 36.5 -115.5t117.5 -34.5q104 0 190 49l109 -209q-68 -44 -163 -71t-196 -27q-210 0 -316 107t-106 301v489h-227z" />
<glyph unicode="u" d="M141 303v784h328v-743q0 -75 27.5 -106t81.5 -31q50 0 99 31.5t83 85.5v763h327v-1087h-286l-15 127q-54 -78 -143 -120t-190 -42q-155 0 -233.5 89.5t-78.5 248.5z" />
<glyph unicode="v" d="M57 1087h355l204 -823h9l215 823h331l-362 -1087h-385z" />
<glyph unicode="w" d="M6 1087h299l64 -847h8l110 710h275l96 -706h8l68 843h289l-154 -1087h-360l-88 692h-9l-92 -692h-354z" />
<glyph unicode="x" d="M43 0l373 571l-338 516h366l168 -337h9l161 337h348l-319 -503l375 -584h-371l-209 397h-8l-201 -397h-354z" />
<glyph unicode="y" d="M55 1087h346l205 -862h8l224 862h336l-363 -1087q-73 -221 -219.5 -332.5t-392.5 -124.5l-37 232q156 20 230.5 69t119.5 156h-113z" />
<glyph unicode="z" d="M145 0v231l539 611h-494v245h875v-229l-533 -610h543l-31 -248h-899z" />
<glyph unicode="{" d="M272 584v266q101 0 147 44t46 157v288q0 145 43.5 225.5t149.5 118t298 37.5v-227q-98 0 -141 -27.5t-43 -101.5v-299q0 -168 -66 -245.5t-210 -98.5v-8q145 -21 210.5 -98t65.5 -246v-299q0 -74 43.5 -101.5t140.5 -27.5v-228q-144 0 -237.5 20t-150.5 66.5t-80 116 t-23 176.5v291q0 113 -45.5 157t-147.5 44z" />
<glyph unicode="|" d="M461 -215v1874h305v-1874h-305z" />
<glyph unicode="}" d="M272 -59q97 0 141 28t44 101v299q0 169 65.5 246t210.5 98v8q-144 21 -210 98.5t-66 245.5v299q0 74 -43.5 101.5t-141.5 27.5v227q192 0 298 -37.5t150 -118.5t44 -225v-288q0 -113 45 -157t147 -44v-266q-101 0 -146.5 -44t-45.5 -157v-291q0 -107 -23 -176.5t-80 -116 t-151 -66.5t-238 -20v228z" />
<glyph unicode="~" d="M43 557q35 72 69 124.5t79 101.5t102 74.5t123 25.5q56 0 106.5 -21t88 -51t71.5 -60.5t70 -51.5t69 -21q56 0 97.5 38.5t85.5 121.5l182 -82q-73 -160 -159 -243t-214 -83q-55 0 -105.5 21t-88 51t-71.5 60.5t-70.5 51.5t-69.5 21q-56 0 -97.5 -39.5t-85.5 -120.5z" />
<glyph unicode="&#xa0;" />
<glyph unicode="&#xa1;" d="M428 860q0 77 55 133t131 56q77 0 132 -56t55 -133q0 -75 -54.5 -129.5t-132.5 -54.5q-76 0 -131 54.5t-55 129.5zM440 -420l43 909h262l46 -909h-351z" />
<glyph unicode="&#xa2;" d="M160 537q0 224 109 378t302 193v309h234v-305q147 -24 264 -123l-141 -196q-99 79 -207 79t-163.5 -79t-55.5 -256q0 -172 55.5 -243t161.5 -71q53 0 98 18t105 62l147 -209q-122 -96 -264 -119v-305h-236v312q-195 38 -302 185.5t-107 369.5z" />
<glyph unicode="&#xa3;" d="M84 0v236q47 15 78 33.5t49.5 39t28 53.5t12 64.5t2.5 83.5v143h-150v170h150v205q0 190 123 309t346 119q274 0 422 -209l-201 -145q-40 59 -85.5 83.5t-108.5 24.5q-172 0 -172 -190v-197h372v-170h-372v-153q0 -86 -27 -147t-94 -97v-8h655l-39 -248h-989z" />
<glyph unicode="&#xa4;" d="M63 291l164 166q-63 101 -63 243q0 143 61 244l-162 164l146 145l166 -166q100 60 241 60q138 0 240 -60l164 164l145 -145l-159 -162q65 -108 65 -244q0 -137 -67 -245l161 -162l-145 -143l-164 159q-99 -57 -240 -57t-243 57l-164 -164zM416 700q0 -109 51 -168 t149 -59q97 0 147 59t50 168q0 107 -50 166.5t-147 59.5q-98 0 -149 -59.5t-51 -166.5z" />
<glyph unicode="&#xa5;" d="M14 1419h348l256 -581h9l250 581h337l-362 -698h203v-168h-275v-139h275v-170h-275v-244h-327v244h-271v170h271v139h-271v168h197z" />
<glyph unicode="&#xa6;" d="M461 -215v745h305v-745h-305zM461 913v746h305v-746h-305z" />
<glyph unicode="&#xa7;" d="M158 629q0 156 168 260q-119 93 -119 233q0 147 122.5 240.5t323.5 93.5q222 0 396 -115l-115 -190q-127 78 -266 78q-70 0 -108 -25.5t-38 -68.5q0 -35 16.5 -57t67 -45.5t154.5 -55.5q157 -47 234 -120t77 -200q0 -161 -162 -264q115 -89 115 -233q0 -148 -125 -240 t-332 -92q-233 0 -397 115l111 200q141 -88 270 -88q74 0 117 26.5t43 68.5q0 34 -15.5 55.5t-68 46.5t-160.5 59q-156 47 -232.5 119.5t-76.5 198.5zM444 676q0 -64 52.5 -98.5t234.5 -96.5q53 68 53 133q0 61 -53.5 95.5t-234.5 95.5q-52 -60 -52 -129z" />
<glyph unicode="&#xa8;" d="M207 1487q0 69 49.5 116.5t118.5 47.5q72 0 121 -47.5t49 -116.5q0 -71 -49 -119.5t-121 -48.5q-69 0 -118.5 49t-49.5 119zM682 1487q0 69 49.5 116.5t120.5 47.5q72 0 120 -47.5t48 -116.5q0 -71 -48 -119.5t-120 -48.5q-71 0 -120.5 49t-49.5 119z" />
<glyph unicode="&#xa9;" d="M16 868q0 193 70 347.5t208 246.5t322 92t321 -92t206 -246.5t69 -347.5q0 -192 -69 -345.5t-206 -245t-321 -91.5q-143 0 -258 53t-189 145.5t-113.5 216t-39.5 267.5zM188 868q0 -114 25.5 -210t76.5 -170t134.5 -116t191.5 -42t190.5 42t133.5 116t76.5 170t25.5 210 q0 115 -25.5 211.5t-76 171.5t-133.5 117.5t-191 42.5t-191.5 -42.5t-134.5 -117.5t-76.5 -171.5t-25.5 -211.5zM289 870q0 186 95.5 295t250.5 109q142 0 237 -98l-100 -125q-57 45 -115 45q-62 0 -98.5 -54.5t-36.5 -171.5q0 -223 135 -223q72 0 134 55l92 -135 q-109 -102 -246 -102q-163 0 -255.5 106t-92.5 299z" />
<glyph unicode="&#xaa;" d="M170 907q0 141 116 221t328 80h109v25q0 70 -37 94.5t-131 24.5q-103 0 -240 -47l-67 186q183 63 348 63q208 0 300.5 -78t92.5 -235v-334q0 -43 14.5 -65t47.5 -33l-64 -182q-91 9 -145 36t-84 82q-104 -122 -275 -122q-140 0 -226.5 79t-86.5 205zM205 0v223h848v-223 h-848zM465 918q0 -103 100 -103q44 0 86.5 26t71.5 70v127h-64q-104 0 -149 -28.5t-45 -91.5z" />
<glyph unicode="&#xab;" d="M104 483v207l349 451l188 -119l-235 -434l235 -436l-188 -119zM586 483v207l350 451l188 -119l-235 -434l235 -436l-188 -119z" />
<glyph unicode="&#xac;" d="M168 526v252h893v-567h-270v315h-623z" />
<glyph unicode="&#xad;" d="M276 514v254h676v-254h-676z" />
<glyph unicode="&#xae;" d="M49 991q0 157 73.5 286t203.5 203t290 74q239 0 400.5 -162t161.5 -401q0 -156 -73.5 -284.5t-202.5 -201.5t-286 -73q-120 0 -225 43t-180 117.5t-118.5 178t-43.5 220.5zM209 991q0 -181 115.5 -300.5t291.5 -119.5q174 0 288 119.5t114 300.5q0 182 -114 304t-288 122 q-176 0 -291.5 -122t-115.5 -304zM395 719v581h178q275 0 275 -180q0 -56 -32 -97t-87 -62l158 -242h-170l-127 211h-47v-211h-148zM543 1049h47q106 0 106 75q0 66 -108 66h-45v-141z" />
<glyph unicode="&#xaf;" d="M299 1374v228h629v-228h-629z" />
<glyph unicode="&#xb0;" d="M145 1208q0 105 55 186t137.5 120.5t174.5 39.5t174.5 -39.5t137.5 -120.5t55 -186t-55 -187t-137.5 -122.5t-174.5 -40.5t-174.5 40.5t-137.5 122.5t-55 187zM371 1208q0 -72 38.5 -115.5t102.5 -43.5t102.5 43.5t38.5 115.5t-38.5 115t-102.5 43t-102.5 -43t-38.5 -115 z" />
<glyph unicode="&#xb1;" d="M168 0v248h893v-248h-893zM168 555v248h309v321h275v-321h309v-248h-309v-207h-275v207h-309z" />
<glyph unicode="&#xb2;" d="M297 1358q123 135 319 135q137 0 214 -61t77 -152q0 -89 -62.5 -152t-228.5 -135h316l-27 -170h-583v152q148 81 221 130t96 79t23 67q0 31 -22.5 51.5t-59.5 20.5q-40 0 -72 -16t-66 -56z" />
<glyph unicode="&#xb3;" d="M285 924l133 112q83 -61 180 -61q102 0 102 63q0 32 -22.5 48t-77.5 16h-108l26 121h82q36 0 56 14t20 39q0 53 -78 53q-84 0 -174 -57l-117 117q130 104 320 104q135 0 210.5 -50t75.5 -132q0 -115 -129 -140v-8q160 -22 160 -149q0 -94 -91.5 -148.5t-246.5 -54.5 q-208 0 -321 113z" />
<glyph unicode="&#xb4;" d="M322 1475l442 284l143 -241l-487 -209z" />
<glyph unicode="&#xb5;" d="M135 -453v1540h326v-618q0 -60 1.5 -94t7.5 -70t17.5 -53.5t32 -29t51.5 -11.5q103 0 177 115v761h327v-700q0 -175 25 -387l-295 -29q-19 74 -27 158q-98 -160 -233 -160q-98 0 -162 82l-8 -4q35 -64 52 -128t17 -159v-180z" />
<glyph unicode="&#xb6;" d="M37 979q0 199 133.5 319.5t382.5 120.5h639v-1849l-274 -23v1651h-168v-1628l-275 -23v994q-216 20 -327 133.5t-111 304.5z" />
<glyph unicode="&#xb7;" d="M385 700q0 94 67 162t162 68t162.5 -68t67.5 -162t-67.5 -161.5t-162.5 -67.5t-162 67.5t-67 161.5z" />
<glyph unicode="&#xb8;" d="M338 -475l78 149q70 -34 131 -34q104 0 104 63q0 38 -44 53t-142 15l29 262h180v-131q107 -12 161 -65t54 -138q0 -105 -84.5 -171.5t-222.5 -66.5q-137 0 -244 64z" />
<glyph unicode="&#xb9;" d="M362 1319l304 162h198v-658h-233v430l-160 -82z" />
<glyph unicode="&#xba;" d="M160 1090q0 203 123 333.5t331 130.5t331.5 -130t123.5 -334q0 -210 -122.5 -338.5t-332.5 -128.5q-211 0 -332.5 127.5t-121.5 339.5zM190 0v223h848v-223h-848zM446 1090q0 -263 168 -263t168 263q0 262 -168 262t-168 -262z" />
<glyph unicode="&#xbb;" d="M104 152l236 436l-236 434l189 119l348 -451v-207l-348 -450zM586 152l235 436l-235 434l188 119l350 -451v-207l-350 -450z" />
<glyph unicode="&#xbc;" d="M-43 1270l303 162h199v-658h-234v430l-159 -82zM8 514l1096 524l84 -155l-1094 -525zM559 115v135l246 426l196 -66l-200 -342h133l31 162h180v-162h88v-153h-88v-115h-215v115h-371z" />
<glyph unicode="&#xbd;" d="M-43 1270l303 162h199v-658h-234v430l-159 -82zM-2 514l1096 524l84 -155l-1094 -525zM637 535q123 135 319 135q137 0 214 -61t77 -152q0 -89 -62.5 -152t-228.5 -135h316l-27 -170h-583v152q148 81 221 130t95.5 79t22.5 67q0 32 -22 52t-59 20q-40 0 -72 -16t-66 -56z " />
<glyph unicode="&#xbe;" d="M-45 874l133 113q83 -61 180 -61q103 0 103 63q0 32 -23 48t-78 16h-108l26 121h82q36 0 56 14t20 39q0 53 -78 53q-84 0 -174 -57l-117 116q131 105 320 105q135 0 211 -50.5t76 -131.5q0 -115 -129 -140v-8q159 -22 159 -149q0 -94 -91.5 -148.5t-246.5 -54.5 q-209 0 -321 112zM23 514l1095 524l84 -155l-1093 -525zM598 115v135l246 426l196 -66l-200 -342h133l31 162h180v-162h88v-153h-88v-115h-215v115h-371z" />
<glyph unicode="&#xbf;" d="M123 -111q0 67 21 121.5t54.5 91t74.5 67.5t81.5 59t74 57.5t54.5 71t21 92.5v40h297v-65q0 -82 -25 -147t-62 -102.5t-81 -71.5t-81 -57t-62 -56t-25 -72q0 -54 44 -84.5t118 -30.5q143 0 254 123l209 -159q-190 -222 -496 -222q-113 0 -204 28t-148.5 76t-88 109.5 t-30.5 130.5zM463 860q0 77 54.5 133t131.5 56q76 0 131.5 -56t55.5 -133q0 -75 -55.5 -129.5t-131.5 -54.5q-77 0 -131.5 54t-54.5 130z" />
<glyph unicode="&#xc0;" d="M-25 0l435 1419h411l434 -1419h-364l-74 305h-411l-74 -305h-357zM309 1745l144 244l442 -285l-96 -166zM459 551h303l-146 600h-10z" />
<glyph unicode="&#xc1;" d="M-25 0l435 1419h411l434 -1419h-364l-74 305h-411l-74 -305h-357zM319 1706l443 285l143 -244l-487 -207zM459 551h303l-146 600h-10z" />
<glyph unicode="&#xc2;" d="M-25 0l435 1419h411l434 -1419h-364l-74 305h-411l-74 -305h-357zM223 1667l291 266h201l289 -266l-117 -135l-273 172l-272 -172zM459 551h303l-146 600h-10z" />
<glyph unicode="&#xc3;" d="M-25 0l435 1419h411l434 -1419h-364l-74 305h-411l-74 -305h-357zM229 1663q38 105 107 172.5t162 67.5q45 0 83 -13.5t59 -29.5t45 -29.5t44 -13.5q35 0 57.5 20t49.5 66l163 -78q-40 -107 -108.5 -173.5t-161.5 -66.5q-44 0 -81.5 13.5t-59 29.5t-46 29.5t-44.5 13.5 q-33 0 -55.5 -20t-49.5 -66zM459 551h303l-146 600h-10z" />
<glyph unicode="&#xc4;" d="M-25 0l435 1419h411l434 -1419h-364l-74 305h-411l-74 -305h-357zM207 1716q0 68 50 116t120 48q72 0 121 -48t49 -116q0 -71 -49 -119.5t-121 -48.5q-71 0 -120.5 49t-49.5 119zM459 551h303l-146 600h-10zM682 1716q0 68 50 116t120 48q72 0 121 -48t49 -116 q0 -71 -49 -119.5t-121 -48.5q-71 0 -120.5 49t-49.5 119z" />
<glyph unicode="&#xc5;" d="M-25 0l435 1419h411l434 -1419h-364l-74 305h-411l-74 -305h-357zM328 1784q0 111 78 189.5t206 78.5q129 0 208 -78.5t79 -189.5q0 -114 -79 -193.5t-208 -79.5q-128 0 -206 79.5t-78 193.5zM459 551h303l-146 600h-10zM520 1784q0 -49 25.5 -76t66.5 -27 q42 0 67.5 26.5t25.5 76.5q0 49 -25 74.5t-68 25.5q-42 0 -67 -25.5t-25 -74.5z" />
<glyph unicode="&#xc6;" d="M-25 0l357 1419h825l-35 -229h-370l67 -356h320v-230h-279l72 -375h303v-229h-545l-49 311h-285l-55 -311h-326zM393 543h213l-98 620h-10z" />
<glyph unicode="&#xc7;" d="M68 713q0 174 50 315.5t139 234.5t210.5 143t263.5 50q146 0 254.5 -40t204.5 -118l-166 -196q-126 102 -268 102q-154 0 -244 -121t-90 -370q0 -246 86.5 -366t239.5 -120q94 0 163 31t144 88l153 -196q-179 -168 -424 -183v-65q105 -12 159 -65t54 -138 q0 -105 -84.5 -171.5t-222.5 -66.5t-241 64l75 149q70 -34 131 -34q105 0 105 63q0 38 -44.5 53t-142.5 15l23 204q-245 39 -386.5 230t-141.5 508z" />
<glyph unicode="&#xc8;" d="M178 0v1419h932l-35 -241h-557v-338h492v-238h-492v-358h592v-244h-932zM350 1745l144 244l442 -285l-96 -166z" />
<glyph unicode="&#xc9;" d="M178 0v1419h932l-35 -241h-557v-338h492v-238h-492v-358h592v-244h-932zM369 1704l442 285l143 -244l-487 -207z" />
<glyph unicode="&#xca;" d="M178 0v1419h932l-35 -241h-557v-338h492v-238h-492v-358h592v-244h-932zM258 1667l291 266h201l288 -266l-116 -135l-273 172l-272 -172z" />
<glyph unicode="&#xcb;" d="M178 0v1419h932l-35 -241h-557v-338h492v-238h-492v-358h592v-244h-932zM238 1716q0 68 50 116t120 48q72 0 121 -48t49 -116q0 -71 -49 -119.5t-121 -48.5q-71 0 -120.5 49t-49.5 119zM713 1716q0 68 50 116t120 48q72 0 121 -48t49 -116q0 -71 -49 -119.5t-121 -48.5 q-71 0 -120.5 49t-49.5 119z" />
<glyph unicode="&#xcc;" d="M152 0v250h292v921h-292v248h925v-248h-293v-921h293v-250h-925zM311 1745l144 244l442 -285l-96 -166z" />
<glyph unicode="&#xcd;" d="M152 0v250h292v921h-292v248h925v-248h-293v-921h293v-250h-925zM319 1704l443 285l143 -244l-487 -207z" />
<glyph unicode="&#xce;" d="M152 0v250h292v921h-292v248h925v-248h-293v-921h293v-250h-925zM223 1667l291 266h201l289 -266l-117 -135l-273 172l-272 -172z" />
<glyph unicode="&#xcf;" d="M152 0v250h292v921h-292v248h925v-248h-293v-921h293v-250h-925zM205 1716q0 68 50 116t120 48q72 0 121 -48t49 -116q0 -71 -49 -119.5t-121 -48.5q-71 0 -120.5 49t-49.5 119zM680 1716q0 68 50 116t120 48q72 0 121 -48t49 -116q0 -71 -49 -119.5t-121 -48.5 q-71 0 -120.5 49t-49.5 119z" />
<glyph unicode="&#xd0;" d="M18 621v204h113v594h361q81 0 151 -8t142.5 -29t131 -54.5t110.5 -88t87 -126.5t55.5 -172.5t20.5 -223.5q0 -168 -37.5 -296t-99 -206.5t-151 -128t-182.5 -68t-204 -18.5h-385v621h-113zM471 246h70q71 0 123 22t92.5 74t61 145.5t20.5 229.5q0 111 -15 193t-40 132 t-64 80t-81 41t-97 11h-70v-349h244v-204h-244v-375z" />
<glyph unicode="&#xd1;" d="M104 0v1419h424l351 -1104h8q-51 226 -51 566v538h288v-1419h-411l-363 1102h-8q18 -85 34.5 -245t16.5 -327v-530h-289zM227 1663q38 105 107 172.5t162 67.5q45 0 83 -13.5t59 -29.5t45 -29.5t44 -13.5q35 0 57.5 20t49.5 66l163 -78q-40 -107 -108.5 -173.5 t-161.5 -66.5q-44 0 -81.5 13.5t-59 29.5t-46 29.5t-44.5 13.5q-33 0 -55.5 -20t-49.5 -66z" />
<glyph unicode="&#xd2;" d="M45 711q0 227 63.5 393.5t193 259t312.5 92.5q276 0 423 -197t147 -548q0 -227 -64 -393.5t-193.5 -259.5t-312.5 -93q-276 0 -422.5 197.5t-146.5 548.5zM309 1745l144 244l442 -285l-96 -166zM393 711q0 -262 52 -380t169 -118q120 0 171 118t51 380t-52 379.5 t-170 117.5t-169.5 -117.5t-51.5 -379.5z" />
<glyph unicode="&#xd3;" d="M45 711q0 227 63.5 393.5t193 259t312.5 92.5q276 0 423 -197t147 -548q0 -227 -64 -393.5t-193.5 -259.5t-312.5 -93q-276 0 -422.5 197.5t-146.5 548.5zM334 1704l442 285l144 -244l-488 -207zM393 711q0 -262 52 -380t169 -118q120 0 171 118t51 380t-52 379.5 t-170 117.5t-169.5 -117.5t-51.5 -379.5z" />
<glyph unicode="&#xd4;" d="M45 711q0 227 63.5 393.5t193 259t312.5 92.5q276 0 423 -197t147 -548q0 -227 -64 -393.5t-193.5 -259.5t-312.5 -93q-276 0 -422.5 197.5t-146.5 548.5zM223 1667l291 266h201l289 -266l-117 -135l-273 172l-272 -172zM393 711q0 -262 52 -380t169 -118q120 0 171 118 t51 380t-52 379.5t-170 117.5t-169.5 -117.5t-51.5 -379.5z" />
<glyph unicode="&#xd5;" d="M45 711q0 227 63.5 393.5t193 259t312.5 92.5q276 0 423 -197t147 -548q0 -227 -64 -393.5t-193.5 -259.5t-312.5 -93q-276 0 -422.5 197.5t-146.5 548.5zM229 1663q38 105 107 172.5t162 67.5q45 0 83 -13.5t59 -29.5t45 -29.5t44 -13.5q35 0 57.5 20t49.5 66l163 -78 q-40 -107 -108.5 -173.5t-161.5 -66.5q-44 0 -81.5 13.5t-59 29.5t-46 29.5t-44.5 13.5q-33 0 -55.5 -20t-49.5 -66zM393 711q0 -262 52 -380t169 -118q120 0 171 118t51 380t-52 379.5t-170 117.5t-169.5 -117.5t-51.5 -379.5z" />
<glyph unicode="&#xd6;" d="M45 711q0 227 63.5 393.5t193 259t312.5 92.5q276 0 423 -197t147 -548q0 -227 -64 -393.5t-193.5 -259.5t-312.5 -93q-276 0 -422.5 197.5t-146.5 548.5zM207 1716q0 68 50 116t120 48q72 0 121 -48t49 -116q0 -71 -49 -119.5t-121 -48.5q-71 0 -120.5 49t-49.5 119z M393 711q0 -262 52 -380t169 -118q120 0 171 118t51 380t-52 379.5t-170 117.5t-169.5 -117.5t-51.5 -379.5zM682 1716q0 68 50 116t120 48q72 0 121 -48t49 -116q0 -71 -49 -119.5t-121 -48.5q-71 0 -120.5 49t-49.5 119z" />
<glyph unicode="&#xd7;" d="M199 385l239 236l-239 235l180 180l235 -239l236 239l180 -180l-239 -235l239 -236l-180 -180l-236 239l-235 -239z" />
<glyph unicode="&#xd8;" d="M45 711q0 227 63.5 393.5t193 259t312.5 92.5q50 0 105 -10l76 250l229 -68l-86 -270q121 -90 183.5 -255t62.5 -392t-64 -393.5t-193.5 -259.5t-312.5 -93q-36 0 -102 8l-78 -252l-229 68l86 274q-121 89 -183.5 254.5t-62.5 393.5zM381 711q0 -252 49 -353l250 848 q-27 8 -66 8q-120 0 -176.5 -118.5t-56.5 -384.5zM553 211q18 -4 61 -4q122 0 178 118.5t56 385.5q0 247 -49 342z" />
<glyph unicode="&#xd9;" d="M84 475v944h342v-815q0 -83 4 -139.5t15.5 -106.5t32.5 -79t54.5 -45.5t81.5 -16.5t82 16.5t54.5 45.5t32.5 79t16 106.5t4 139.5v815h342v-944q0 -148 -58 -261.5t-179.5 -181t-293.5 -67.5q-260 0 -395 137.5t-135 372.5zM305 1745l144 244l442 -285l-96 -166z" />
<glyph unicode="&#xda;" d="M84 475v944h342v-815q0 -83 4 -139.5t15.5 -106.5t32.5 -79t54.5 -45.5t81.5 -16.5t82 16.5t54.5 45.5t32.5 79t16 106.5t4 139.5v815h342v-944q0 -148 -58 -261.5t-179.5 -181t-293.5 -67.5q-260 0 -395 137.5t-135 372.5zM326 1704l442 285l143 -244l-487 -207z" />
<glyph unicode="&#xdb;" d="M84 475v944h342v-815q0 -83 4 -139.5t15.5 -106.5t32.5 -79t54.5 -45.5t81.5 -16.5t82 16.5t54.5 45.5t32.5 79t16 106.5t4 139.5v815h342v-944q0 -148 -58 -261.5t-179.5 -181t-293.5 -67.5q-260 0 -395 137.5t-135 372.5zM223 1667l291 266h201l289 -266l-117 -135 l-273 172l-272 -172z" />
<glyph unicode="&#xdc;" d="M84 475v944h342v-815q0 -83 4 -139.5t15.5 -106.5t32.5 -79t54.5 -45.5t81.5 -16.5t82 16.5t54.5 45.5t32.5 79t16 106.5t4 139.5v815h342v-944q0 -148 -58 -261.5t-179.5 -181t-293.5 -67.5q-260 0 -395 137.5t-135 372.5zM205 1716q0 68 50 116t120 48q72 0 121 -48 t49 -116q0 -71 -49 -119.5t-121 -48.5q-71 0 -120.5 49t-49.5 119zM680 1716q0 68 50 116t120 48q72 0 121 -48t49 -116q0 -71 -49 -119.5t-121 -48.5q-71 0 -120.5 49t-49.5 119z" />
<glyph unicode="&#xdd;" d="M-18 1419h372l262 -598h9l264 598h358l-463 -887v-532h-340v530zM326 1704l442 285l143 -244l-487 -207z" />
<glyph unicode="&#xde;" d="M119 0v1419h342v-229h110q294 0 452.5 -117t158.5 -348q0 -245 -147.5 -366t-418.5 -121h-155v-238h-342zM461 483h133q114 0 173.5 56.5t59.5 183.5q0 117 -61.5 171t-185.5 54h-119v-465z" />
<glyph unicode="&#xdf;" d="M121 0v1087q0 222 121.5 344.5t353.5 122.5q194 0 305 -90.5t111 -228.5q0 -51 -19 -94.5t-46 -73.5t-54.5 -57.5t-46.5 -59t-19 -65.5q0 -42 37 -80.5t89 -76t104.5 -84t89.5 -124t37 -176.5q0 -177 -115.5 -278t-298.5 -101q-142 0 -260 64l104 219q64 -31 115 -31 q117 0 117 125q0 45 -16.5 82.5t-43.5 64.5t-59 52.5t-64.5 52.5t-59.5 58t-43.5 76t-16.5 99q0 51 15.5 96.5t37.5 80t44.5 67.5t38 71.5t15.5 78.5q0 50 -28 77t-78 27q-74 0 -106.5 -54t-32.5 -169v-1102h-328z" />
<glyph unicode="&#xe0;" d="M68 307q0 177 140 274t392 97h145v39q0 82 -56.5 124t-160.5 42q-124 0 -295 -58l-75 217q103 39 217 60.5t203 21.5q247 0 365 -96t118 -289v-424q0 -60 16.5 -88.5t55.5 -42.5l-68 -215q-197 18 -268 144q-60 -72 -158 -110t-201 -38q-167 0 -268.5 95t-101.5 247z M317 1462l144 244l442 -295l-98 -166zM408 330q0 -61 39.5 -96t103.5 -35q55 0 110.5 31.5t83.5 86.5v175h-77q-260 0 -260 -162z" />
<glyph unicode="&#xe1;" d="M68 307q0 177 140 274t392 97h145v39q0 82 -56.5 124t-160.5 42q-124 0 -295 -58l-75 217q103 39 217 60.5t203 21.5q247 0 365 -96t118 -289v-424q0 -60 16.5 -88.5t55.5 -42.5l-68 -215q-197 18 -268 144q-60 -72 -158 -110t-201 -38q-167 0 -268.5 95t-101.5 247z M330 1411l440 295l145 -244l-487 -217zM408 330q0 -61 39.5 -96t103.5 -35q55 0 110.5 31.5t83.5 86.5v175h-77q-260 0 -260 -162z" />
<glyph unicode="&#xe2;" d="M68 307q0 177 140 274t392 97h145v39q0 82 -56.5 124t-160.5 42q-124 0 -295 -58l-75 217q103 39 217 60.5t203 21.5q247 0 365 -96t118 -289v-424q0 -60 16.5 -88.5t55.5 -42.5l-68 -215q-197 18 -268 144q-60 -72 -158 -110t-201 -38q-167 0 -268.5 95t-101.5 247z M227 1384l291 287h201l289 -287l-117 -133l-273 193l-272 -193zM408 330q0 -61 39.5 -96t103.5 -35q55 0 110.5 31.5t83.5 86.5v175h-77q-260 0 -260 -162z" />
<glyph unicode="&#xe3;" d="M68 307q0 177 140 274t392 97h145v39q0 82 -56.5 124t-160.5 42q-124 0 -295 -58l-75 217q103 39 217 60.5t203 21.5q247 0 365 -96t118 -289v-424q0 -60 16.5 -88.5t55.5 -42.5l-68 -215q-197 18 -268 144q-60 -72 -158 -110t-201 -38q-167 0 -268.5 95t-101.5 247z M233 1376q38 105 108 173.5t161 68.5q45 0 83 -14t59 -31t45 -31t44 -14q34 0 57 20.5t50 67.5l164 -78q-41 -107 -110 -175.5t-161 -68.5q-44 0 -81.5 14.5t-59 31.5t-46 31.5t-44.5 14.5q-33 0 -55.5 -20.5t-49.5 -67.5zM408 330q0 -61 39.5 -96t103.5 -35 q55 0 110.5 31.5t83.5 86.5v175h-77q-260 0 -260 -162z" />
<glyph unicode="&#xe4;" d="M68 307q0 177 140 274t392 97h145v39q0 82 -56.5 124t-160.5 42q-124 0 -295 -58l-75 217q103 39 217 60.5t203 21.5q247 0 365 -96t118 -289v-424q0 -60 16.5 -88.5t55.5 -42.5l-68 -215q-197 18 -268 144q-60 -72 -158 -110t-201 -38q-167 0 -268.5 95t-101.5 247z M213 1470q0 69 49.5 116.5t120.5 47.5q72 0 121 -47.5t49 -116.5q0 -70 -49 -117.5t-121 -47.5q-71 0 -120.5 47.5t-49.5 117.5zM408 330q0 -61 39.5 -96t103.5 -35q55 0 110.5 31.5t83.5 86.5v175h-77q-260 0 -260 -162zM688 1470q0 68 50 116t120 48q72 0 121 -47.5 t49 -116.5q0 -70 -49 -117.5t-121 -47.5q-70 0 -120 47.5t-50 117.5z" />
<glyph unicode="&#xe5;" d="M68 307q0 177 140 274t392 97h145v39q0 82 -56.5 124t-160.5 42q-124 0 -295 -58l-75 217q103 39 217 60.5t203 21.5q247 0 365 -96t118 -289v-424q0 -60 16.5 -88.5t55.5 -42.5l-68 -215q-197 18 -268 144q-60 -72 -158 -110t-201 -38q-167 0 -268.5 95t-101.5 247z M336 1503q0 113 78.5 192t206.5 79q129 0 207.5 -79t78.5 -192t-78.5 -192.5t-207.5 -79.5q-128 0 -206.5 79.5t-78.5 192.5zM408 330q0 -61 39.5 -96t103.5 -35q55 0 110.5 31.5t83.5 86.5v175h-77q-260 0 -260 -162zM530 1503q0 -51 24.5 -76.5t66.5 -25.5q43 0 67.5 25.5 t24.5 76.5q0 50 -24.5 75.5t-67.5 25.5q-41 0 -66 -26t-25 -75z" />
<glyph unicode="&#xe6;" d="M-12 311q0 359 413 359h84v47q0 103 -46.5 155t-135.5 52q-48 0 -87.5 -11t-102.5 -41l-74 179q86 38 153 55.5t144 17.5q197 0 282 -143q38 67 104 105t155 38q187 0 269.5 -140t82.5 -419q0 -53 -6 -102h-492q13 -144 61.5 -213.5t135.5 -69.5t178 66l123 -164 q-138 -117 -320 -117q-217 0 -327 172q-61 -92 -125 -132t-164 -40q-141 0 -223 95.5t-82 250.5zM260 326q0 -70 24 -109t68 -39q80 0 142 125q-9 92 -9 191h-43q-96 0 -139 -42.5t-43 -125.5zM731 639h252q-2 152 -26.5 216.5t-92.5 64.5q-65 0 -96 -62.5t-37 -218.5z" />
<glyph unicode="&#xe7;" d="M129 537q0 170 68.5 302.5t198.5 208.5t302 76q238 0 400 -137l-142 -196q-105 81 -237 81q-246 0 -246 -335q0 -314 246 -314q122 0 231 82l148 -209q-144 -117 -357 -129v-65q105 -12 159 -65t54 -138q0 -105 -84.5 -171.5t-222.5 -66.5q-134 0 -241 64l77 149 q66 -34 129 -34q107 0 107 63q0 38 -45.5 53t-143.5 15l23 209q-201 39 -312.5 187.5t-111.5 369.5z" />
<glyph unicode="&#xe8;" d="M92 543q0 121 35.5 226.5t101 184.5t167 124.5t225.5 45.5q237 0 376.5 -148.5t139.5 -410.5q0 -58 -7 -116h-704q32 -246 260 -246q143 0 272 98l138 -186q-85 -68 -197 -109t-237 -41q-276 0 -423 158t-147 420zM324 1462l143 244l442 -295l-98 -166zM422 645h395 q-3 260 -194 260q-181 0 -201 -260z" />
<glyph unicode="&#xe9;" d="M92 543q0 121 35.5 226.5t101 184.5t167 124.5t225.5 45.5q237 0 376.5 -148.5t139.5 -410.5q0 -58 -7 -116h-704q32 -246 260 -246q143 0 272 98l138 -186q-85 -68 -197 -109t-237 -41q-276 0 -423 158t-147 420zM336 1411l440 295l146 -244l-488 -217zM422 645h395 q-3 260 -194 260q-181 0 -201 -260z" />
<glyph unicode="&#xea;" d="M92 543q0 121 35.5 226.5t101 184.5t167 124.5t225.5 45.5q237 0 376.5 -148.5t139.5 -410.5q0 -58 -7 -116h-704q32 -246 260 -246q143 0 272 98l138 -186q-85 -68 -197 -109t-237 -41q-276 0 -423 158t-147 420zM236 1384l290 287h201l289 -287l-117 -133l-272 193 l-273 -193zM422 645h395q-3 260 -194 260q-181 0 -201 -260z" />
<glyph unicode="&#xeb;" d="M92 543q0 121 35.5 226.5t101 184.5t167 124.5t225.5 45.5q237 0 376.5 -148.5t139.5 -410.5q0 -58 -7 -116h-704q32 -246 260 -246q143 0 272 98l138 -186q-85 -68 -197 -109t-237 -41q-276 0 -423 158t-147 420zM217 1470q0 69 49.5 116.5t120.5 47.5q72 0 121 -47.5 t49 -116.5q0 -70 -49 -117.5t-121 -47.5q-71 0 -120.5 47.5t-49.5 117.5zM422 645h395q-3 260 -194 260q-181 0 -201 -260zM692 1470q0 68 50 116t120 48q72 0 121 -47.5t49 -116.5q0 -70 -49 -117.5t-121 -47.5q-70 0 -120 47.5t-50 117.5z" />
<glyph unicode="&#xec;" d="M174 0v223h307v641h-297v223h625v-864h276v-223h-911zM309 1462l144 244l442 -295l-98 -166z" />
<glyph unicode="&#xed;" d="M174 0v223h307v641h-297v223h625v-864h276v-223h-911zM326 1411l440 295l145 -244l-487 -217z" />
<glyph unicode="&#xee;" d="M174 0v223h307v641h-297v223h625v-864h276v-223h-911zM225 1384l291 287h201l289 -287l-117 -133l-273 193l-272 -193z" />
<glyph unicode="&#xef;" d="M174 0v223h307v641h-297v223h625v-864h276v-223h-911zM205 1470q0 69 49.5 116.5t120.5 47.5q72 0 121 -47.5t49 -116.5q0 -70 -49 -117.5t-121 -47.5q-71 0 -120.5 47.5t-49.5 117.5zM680 1470q0 68 50 116t120 48q72 0 121 -47.5t49 -116.5q0 -70 -49 -117.5 t-121 -47.5q-70 0 -120 47.5t-50 117.5z" />
<glyph unicode="&#xf0;" d="M80 479q0 111 35.5 207t95.5 161t139 102.5t164 37.5q159 0 266 -86l6 2q-60 177 -211 287l-112 -115l-207 94l117 123q-95 31 -185 47l64 213q172 -24 299 -73l149 155l168 -145l-108 -111q381 -243 381 -811q0 -170 -61 -305t-185 -216t-293 -81q-228 0 -375 138 t-147 376zM414 483q0 -280 194 -280q104 0 152.5 78.5t48.5 242.5q0 101 -2 148q-80 86 -205 86q-87 0 -137.5 -69.5t-50.5 -205.5z" />
<glyph unicode="&#xf1;" d="M141 0v1087h287l23 -124q142 161 337 161q144 0 221.5 -84.5t77.5 -240.5v-799h-327v707q0 99 -22 137.5t-81 38.5q-91 0 -188 -131v-752h-328zM256 1376q38 105 107.5 173.5t160.5 68.5q45 0 83 -14t59.5 -31t45.5 -31t44 -14q34 0 56 20t50 68l164 -78 q-41 -107 -109.5 -175.5t-160.5 -68.5q-44 0 -81.5 14.5t-59 31.5t-46.5 31.5t-45 14.5q-33 0 -55 -20.5t-49 -67.5z" />
<glyph unicode="&#xf2;" d="M84 545q0 263 141.5 421t388.5 158q249 0 390 -156.5t141 -420.5q0 -274 -140.5 -428t-390.5 -154q-251 0 -390.5 152.5t-139.5 427.5zM311 1462l144 244l442 -295l-98 -166zM422 545q0 -178 46.5 -259t145.5 -81t146 81t47 261q0 174 -47 255t-146 81t-145.5 -81 t-46.5 -257z" />
<glyph unicode="&#xf3;" d="M84 545q0 263 141.5 421t388.5 158q249 0 390 -156.5t141 -420.5q0 -274 -140.5 -428t-390.5 -154q-251 0 -390.5 152.5t-139.5 427.5zM326 1411l440 295l145 -244l-487 -217zM422 545q0 -178 46.5 -259t145.5 -81t146 81t47 261q0 174 -47 255t-146 81t-145.5 -81 t-46.5 -257z" />
<glyph unicode="&#xf4;" d="M84 545q0 263 141.5 421t388.5 158q249 0 390 -156.5t141 -420.5q0 -274 -140.5 -428t-390.5 -154q-251 0 -390.5 152.5t-139.5 427.5zM225 1384l291 287h201l289 -287l-117 -133l-273 193l-272 -193zM422 545q0 -178 46.5 -259t145.5 -81t146 81t47 261q0 174 -47 255 t-146 81t-145.5 -81t-46.5 -257z" />
<glyph unicode="&#xf5;" d="M84 545q0 263 141.5 421t388.5 158q249 0 390 -156.5t141 -420.5q0 -274 -140.5 -428t-390.5 -154q-251 0 -390.5 152.5t-139.5 427.5zM231 1376q38 105 108 173.5t161 68.5q45 0 83 -14t59 -31t45 -31t44 -14q34 0 57 20.5t50 67.5l163 -78q-41 -107 -109.5 -175.5 t-160.5 -68.5q-44 0 -81.5 14.5t-59 31.5t-46 31.5t-44.5 14.5q-33 0 -55.5 -20.5t-49.5 -67.5zM422 545q0 -178 46.5 -259t145.5 -81t146 81t47 261q0 174 -47 255t-146 81t-145.5 -81t-46.5 -257z" />
<glyph unicode="&#xf6;" d="M84 545q0 263 141.5 421t388.5 158q249 0 390 -156.5t141 -420.5q0 -274 -140.5 -428t-390.5 -154q-251 0 -390.5 152.5t-139.5 427.5zM207 1470q0 69 49.5 116.5t120.5 47.5q72 0 121 -47.5t49 -116.5q0 -70 -49 -117.5t-121 -47.5q-71 0 -120.5 47.5t-49.5 117.5z M422 545q0 -178 46.5 -259t145.5 -81t146 81t47 261q0 174 -47 255t-146 81t-145.5 -81t-46.5 -257zM682 1470q0 68 50 116t120 48q72 0 121 -47.5t49 -116.5q0 -70 -49 -117.5t-121 -47.5q-70 0 -120 47.5t-50 117.5z" />
<glyph unicode="&#xf7;" d="M168 526v252h893v-252h-893zM428 213q0 77 54 131.5t132 54.5t132.5 -54.5t54.5 -131.5t-54.5 -131.5t-132.5 -54.5t-132 54.5t-54 131.5zM428 1092q0 77 54 131.5t132 54.5t132.5 -54.5t54.5 -131.5q0 -76 -54.5 -130.5t-132.5 -54.5q-77 0 -131.5 54.5t-54.5 130.5z " />
<glyph unicode="&#xf8;" d="M84 545q0 260 142 419.5t388 159.5q32 0 64 -4l78 238l237 -70l-80 -246q112 -72 172 -200t60 -295q0 -271 -141 -426.5t-390 -155.5q-23 0 -63 4l-76 -250l-239 70l81 252q-114 67 -173.5 196t-59.5 308zM416 545q0 -183 41 -252l188 588q-14 2 -39 2q-99 0 -144.5 -81 t-45.5 -257zM590 207q12 -2 33 -2q100 0 145 80.5t45 261.5q0 164 -39 235z" />
<glyph unicode="&#xf9;" d="M141 303v784h328v-743q0 -75 27.5 -106t81.5 -31q50 0 99 31.5t83 85.5v763h327v-1087h-286l-15 127q-54 -78 -143 -120t-190 -42q-155 0 -233.5 89.5t-78.5 248.5zM307 1462l144 244l442 -295l-98 -166z" />
<glyph unicode="&#xfa;" d="M141 303v784h328v-743q0 -75 27.5 -106t81.5 -31q50 0 99 31.5t83 85.5v763h327v-1087h-286l-15 127q-54 -78 -143 -120t-190 -42q-155 0 -233.5 89.5t-78.5 248.5zM336 1411l440 295l146 -244l-488 -217z" />
<glyph unicode="&#xfb;" d="M141 303v784h328v-743q0 -75 27.5 -106t81.5 -31q50 0 99 31.5t83 85.5v763h327v-1087h-286l-15 127q-54 -78 -143 -120t-190 -42q-155 0 -233.5 89.5t-78.5 248.5zM223 1384l291 287h201l289 -287l-117 -133l-273 193l-272 -193z" />
<glyph unicode="&#xfc;" d="M141 303v784h328v-743q0 -75 27.5 -106t81.5 -31q50 0 99 31.5t83 85.5v763h327v-1087h-286l-15 127q-54 -78 -143 -120t-190 -42q-155 0 -233.5 89.5t-78.5 248.5zM205 1470q0 69 49.5 116.5t120.5 47.5q72 0 121 -47.5t49 -116.5q0 -70 -49 -117.5t-121 -47.5 q-71 0 -120.5 47.5t-49.5 117.5zM680 1470q0 68 50 116t120 48q72 0 121 -47.5t49 -116.5q0 -70 -49 -117.5t-121 -47.5q-70 0 -120 47.5t-50 117.5z" />
<glyph unicode="&#xfd;" d="M55 1087h346l205 -862h8l224 862h336l-363 -1087q-73 -221 -219.5 -332.5t-392.5 -124.5l-37 232q156 20 230.5 69t119.5 156h-113zM342 1411l440 295l146 -244l-488 -217z" />
<glyph unicode="&#xfe;" d="M141 -455v1975l328 34v-575q118 145 279 145q397 0 397 -577q0 -169 -49 -300t-144.5 -206.5t-224.5 -75.5q-160 0 -258 113v-498zM469 301q35 -51 70.5 -73.5t85.5 -22.5q89 0 135.5 80.5t46.5 257.5q0 131 -20.5 207.5t-55.5 104.5t-90 28q-97 0 -172 -125v-457z" />
<glyph unicode="&#xff;" d="M55 1087h346l205 -862h8l224 862h336l-363 -1087q-73 -221 -219.5 -332.5t-392.5 -124.5l-37 232q156 20 230.5 69t119.5 156h-113zM211 1470q0 69 49.5 116.5t120.5 47.5q72 0 121 -47.5t49 -116.5q0 -70 -49 -117.5t-121 -47.5q-71 0 -120.5 47.5t-49.5 117.5z M686 1470q0 68 50 116t120 48q72 0 121 -47.5t49 -116.5q0 -70 -49 -117.5t-121 -47.5q-70 0 -120 47.5t-50 117.5z" />
<glyph unicode="&#x152;" d="M20 711q0 745 441 745q87 0 196 -37h564l-35 -229h-369q66 -132 78 -356h248v-230h-246q-12 -228 -90 -375h414v-229h-572q-115 -35 -188 -35q-229 0 -335 189.5t-106 556.5zM309 711q0 -281 35 -398.5t119 -117.5q87 0 122.5 117t35.5 399q0 291 -33.5 402.5 t-124.5 111.5q-89 0 -121.5 -114t-32.5 -400z" />
<glyph unicode="&#x153;" d="M-16 545q0 177 38.5 304.5t124 201t213.5 73.5q100 0 163 -43t102 -127q90 170 272 170q183 0 263.5 -139.5t80.5 -419.5q0 -53 -6 -102h-479q12 -147 58.5 -215t131.5 -68q81 0 172 66l123 -164q-138 -117 -311 -117q-207 0 -312 162q-79 -162 -258 -162 q-376 0 -376 580zM254 545q0 -191 26.5 -265.5t92.5 -74.5t92.5 74t26.5 268q0 184 -27 260t-92 76q-66 0 -92.5 -76t-26.5 -262zM754 639h241q-2 153 -24.5 217t-85.5 64q-62 0 -93 -62.5t-38 -218.5z" />
<glyph unicode="&#x178;" d="M-18 1419h372l262 -598h9l264 598h358l-463 -887v-532h-340v530zM209 1716q0 68 50 116t120 48q72 0 121 -48t49 -116q0 -71 -49 -119.5t-121 -48.5q-71 0 -120.5 49t-49.5 119zM684 1716q0 68 50 116t120 48q72 0 121 -48t49 -116q0 -71 -49 -119.5t-121 -48.5 q-71 0 -120.5 49t-49.5 119z" />
<glyph unicode="&#x2c6;" d="M225 1436l289 268h201l289 -268l-117 -133l-273 174l-272 -174z" />
<glyph unicode="&#x2dc;" d="M229 1434q40 107 109 174t162 67q56 0 99.5 -22t74.5 -44t57 -22q33 0 55.5 20t49.5 66l163 -78q-40 -106 -109 -172.5t-161 -66.5q-44 0 -81.5 13.5t-58 29.5t-45 29.5t-44.5 13.5q-35 0 -57.5 -20t-49.5 -66z" />
<glyph unicode="&#x2000;" horiz-adv-x="1026" />
<glyph unicode="&#x2001;" horiz-adv-x="2052" />
<glyph unicode="&#x2002;" horiz-adv-x="1026" />
<glyph unicode="&#x2003;" horiz-adv-x="2052" />
<glyph unicode="&#x2004;" horiz-adv-x="684" />
<glyph unicode="&#x2005;" horiz-adv-x="513" />
<glyph unicode="&#x2006;" horiz-adv-x="342" />
<glyph unicode="&#x2007;" horiz-adv-x="342" />
<glyph unicode="&#x2008;" horiz-adv-x="256" />
<glyph unicode="&#x2009;" horiz-adv-x="410" />
<glyph unicode="&#x200a;" horiz-adv-x="114" />
<glyph unicode="&#x2010;" d="M221 514v254h787v-254h-787z" />
<glyph unicode="&#x2011;" d="M221 514v254h787v-254h-787z" />
<glyph unicode="&#x2012;" d="M221 514v254h787v-254h-787z" />
<glyph unicode="&#x2013;" d="M55 514v254h1119v-254h-1119z" />
<glyph unicode="&#x2014;" d="M0 514v254h1229v-254h-1229z" />
<glyph unicode="&#x2018;" d="M416 1098q0 85 65 215l146 303h184l-88 -363q80 -57 80 -155q0 -78 -56 -132.5t-139 -54.5t-137.5 54t-54.5 133z" />
<glyph unicode="&#x2019;" d="M416 911l88 363q-80 57 -80 156q0 78 55.5 132t138.5 54t138 -53.5t55 -132.5q0 -84 -66 -216l-145 -303h-184z" />
<glyph unicode="&#x201a;" d="M416 -373l90 363q-80 57 -80 155q0 78 56 132.5t139 54.5t137.5 -54t54.5 -133t-65 -215l-148 -303h-184z" />
<glyph unicode="&#x201c;" d="M178 1098q0 82 64 215l145 303h184l-88 -363q80 -57 80 -155q0 -79 -55.5 -133t-138.5 -54q-82 0 -136.5 54t-54.5 133zM655 1098q0 83 66 215l145 303h185l-90 -363q81 -58 81 -155q0 -78 -56 -132.5t-138 -54.5q-83 0 -138 54t-55 133z" />
<glyph unicode="&#x201d;" d="M178 930l88 362q-80 57 -80 156q0 78 56.5 131t138.5 53q83 0 137.5 -53t54.5 -131q0 -79 -65 -217l-146 -301h-184zM655 930l90 362q-81 58 -81 156q0 78 56 131t138 53q83 0 138 -53t55 -131q0 -82 -66 -217l-145 -301h-185z" />
<glyph unicode="&#x201e;" d="M178 -373l90 363q-82 59 -82 155q0 78 56.5 132.5t138.5 54.5q83 0 137.5 -54t54.5 -133q0 -85 -65 -215l-146 -303h-184zM655 -373l90 363q-81 58 -81 155q0 78 56 132.5t138 54.5q83 0 138 -54t55 -133q0 -83 -66 -215l-145 -303h-185z" />
<glyph unicode="&#x2022;" d="M322 700q0 126 83 208.5t209 82.5t209.5 -83.5t83.5 -209.5t-83.5 -208t-209.5 -82t-209 83.5t-83 208.5z" />
<glyph unicode="&#x2026;" d="M29 135q0 72 52 124t124 52t124 -52t52 -124t-52 -124t-124 -52t-124 52t-52 124zM438 135q0 72 52 124t124 52t124.5 -52t52.5 -124t-52.5 -124t-124.5 -52t-124 52t-52 124zM848 135q0 72 52 124t124 52t124 -52t52 -124t-52 -124t-124 -52t-124 52t-52 124z" />
<glyph unicode="&#x202f;" horiz-adv-x="410" />
<glyph unicode="&#x2039;" d="M319 483v207l388 451l202 -133l-262 -420l262 -422l-202 -133z" />
<glyph unicode="&#x203a;" d="M319 166l261 422l-261 420l201 133l389 -451v-207l-389 -450z" />
<glyph unicode="&#x205f;" horiz-adv-x="513" />
<glyph unicode="&#x20ac;" d="M66 469l43 172h124v143h-165l43 170h147q51 237 202.5 369.5t377.5 132.5q115 0 192.5 -26.5t157.5 -79.5l-121 -203q-59 39 -104 54.5t-109 15.5q-213 0 -268 -263h420l-43 -170h-400v-143h369l-45 -172h-307q23 -137 86.5 -199.5t177.5 -62.5q146 0 286 94v-260 q-158 -76 -311 -76q-234 0 -377 129.5t-188 374.5h-188z" />
<glyph unicode="&#x2122;" d="M-29 1247v178h789l84 -473h10l82 473h254l27 -821h-201l-4 270q-3 188 18 312h-8l-88 -436h-168l-90 436h-8q21 -119 18 -312l-4 -270h-203l23 643h-144v-643h-223v643h-164z" />
<glyph unicode="&#x25fc;" horiz-adv-x="1085" d="M0 0v1085h1085v-1085h-1085z" />
<glyph unicode="&#xfb01;" d="M20 860v227h158v89q0 168 113.5 273t326.5 105q217 0 375 -69l-88 -213q-107 41 -233 41q-96 0 -138 -35t-42 -115v-76h591v-864h129v-223h-567v223h123v637h-276v-860h-314v860h-158z" />
<glyph unicode="&#xfb02;" d="M12 860v227h144v89q0 167 115 272.5t321 105.5q105 0 217 -34l223 32v-1230q0 -54 19 -76.5t55 -22.5q25 0 74 17l63 -234q-98 -41 -211 -41q-152 0 -233.5 83.5t-81.5 244.5v1014q-44 12 -92 12q-82 0 -118 -37.5t-36 -118.5v-76h168l-35 -227h-133v-860h-315v860h-144z " />
</font>
</defs>
</svg>
